<?xml version="1.0" standalone="no"?>
<!DOCTYPE svg PUBLIC "-//W3C//DTD SVG 1.1//EN" "http://www.w3.org/Graphics/SVG/1.1/DTD/svg11.dtd" >
<svg xmlns="http://www.w3.org/2000/svg">
<metadata></metadata>
<defs>
<font id="alluraregular" horiz-adv-x="935" >
<font-face units-per-em="2048" ascent="1638" descent="-410" />
<missing-glyph horiz-adv-x="448" />
<glyph horiz-adv-x="0" />
<glyph unicode="&#xd;" horiz-adv-x="681" />
<glyph unicode=" "  horiz-adv-x="448" />
<glyph unicode="&#x09;" horiz-adv-x="448" />
<glyph unicode="&#xa0;" horiz-adv-x="448" />
<glyph unicode="!" horiz-adv-x="331" d="M193 8q0 16 40 49q57 45 70.5 45t13.5 -12v-35q0 -14 -22.5 -47t-34.5 -33q-68 0 -67 33zM303 289q0 8 50 152.5t171 428t132.5 295t24.5 11.5t45 -21.5t32 -61.5t-49 -126q-6 -12 -22.5 -26.5t-24 -30t-58.5 -113t-68.5 -133t-54.5 -111.5q-70 -145 -104 -258 q-6 -20 -40 -25.5t-34 19.5z" />
<glyph unicode="&#x22;" horiz-adv-x="524" d="M158 621l8 204q0 14 -2 44t0 41.5t16.5 21.5t54 10t35.5 -37q-2 -55 -20 -92q-6 -27 -25.5 -89t-27.5 -93q-8 -35 -23.5 -35t-15.5 25zM389 618l8 123q2 82 2 84l-4 72q0 33 19.5 39t46.5 6q41 0 41 -37q0 -25 -9.5 -56.5t-12.5 -44.5t-23.5 -75.5t-27.5 -97.5t-23.5 -35 t-16.5 22z" />
<glyph unicode="#" horiz-adv-x="1587" d="M31 279q0 18 19.5 32.5t340.5 14.5q76 227 139 399q-279 -4 -284.5 -4h-14.5q-61 0 -63 31q0 18 20.5 32.5t366.5 14.5l139 385q35 96 60 96q14 0 12 -45l2 -2q-4 -33 -139 -434q61 2 133 2l287 -2q31 84 61.5 170t52 142t23.5 63q37 96 59 96q14 0 12 -45h3 q-2 -14 -136 -426l299 -4q111 -2 111 -29q0 -12 -39 -23v-2q-18 -6 -395 -10l-135 -405l319 -4q111 -4 111 -29q0 -12 -39 -23v-4q-10 -2 -414 -10l-70 -215q-18 -68 -49 -68h-2q-29 6 -28.5 34t69.5 249l-413 -4l-68 -203q-18 -68 -49 -67.5t-31 36.5q0 25 68 234l-271 -6 q-68 0 -67 33zM471 326h414q43 129 141 405l-422 -6z" />
<glyph unicode="$" horiz-adv-x="892" d="M125 188q0 10 4 13.5t26.5 -6t77.5 -17.5q63 125 119 228q-160 164 -159.5 289.5t88.5 207.5q141 129 350 129q35 0 69 -4h9q39 55 41 57q18 20 38 21q66 0 46 -27l-19 -26q-18 -27 -29 -43q125 -45 119 -140q-2 -80 -69.5 -150.5t-149.5 -101.5q-18 -8 -22 -4 q-10 6 12 29q174 166 174 242q0 61 -94 78q-188 -285 -342 -566q49 -55 71 -82q68 -80 68 -135q-2 -60 -84 -80q-59 -14 -109.5 -14t-93.5 14q-39 -84 -53 -114q-14 -35 -53 -35q-23 0 -18 29.5t63 140.5q-80 39 -80 67zM250 649q0 -70 123 -205q219 393 301 525 q-147 -10 -285.5 -103.5t-138.5 -216.5zM297 170q21 -2 39 -2q137 0 143 84q0 25 -86 110q-10 -23 -30.5 -61.5t-36 -70t-29.5 -60.5z" />
<glyph unicode="%" horiz-adv-x="950" d="M125 -35q0 51 637 1057q-74 -25 -136.5 -25t-113.5 17q16 -129 -90 -240q-78 -82 -156 -82t-105.5 37t-27.5 66q0 143 84 219t159 77t107 -30q55 -23 103 -23q155 0 221 47q20 20 69.5 20.5t49.5 -18.5q0 -4 -4 -8q-127 -152 -360.5 -495.5t-356.5 -593.5 q-20 -39 -62 -39q-18 0 -18 14zM205 796.5q0 -28.5 16.5 -46t57 -16.5t82.5 50.5t56.5 88t19.5 64.5t5 54.5t-15 46t-30.5 17.5h-17.5q-49 0 -93 -50.5t-57.5 -90.5t-18.5 -64.5t-5 -53zM465 106v15q12 111 89 179.5t171 72.5q57 0 89 -29t32 -78q0 -14 -2 -30 q-10 -100 -86 -181q-80 -82 -168 -82q-125 0 -125 133zM537 78.5q0 -27.5 17 -45t57 -17.5t83 50.5t62.5 107.5t19.5 94q0 68 -63 68q-51 0 -96.5 -51.5t-58.5 -89t-17 -63.5t-4 -53.5z" />
<glyph unicode="&#x26;" horiz-adv-x="1427" d="M78 203q0 117 94 215q123 129 412 137q66 2 86 4q-119 100 -191 248q-33 72 -33 137.5t39 120.5t158 84q70 16 115 16t79.5 -9t84 -39t75.5 -62q47 55 80 57q27 6 45.5 -9.5t-4.5 -37.5q-6 -6 -33 -27q-117 -94 -116 -159q0 -23 11 -39.5t-2 -20.5t-25.5 7.5t-12.5 76 t33 117.5q-43 47 -103.5 72.5t-95.5 25.5q-154 0 -174 -135q-4 -35 -4 -88t30.5 -145.5t70.5 -144.5t36 -65.5t-37 -17.5q-168 -18 -325 -102q-92 -45 -140.5 -110.5t-48.5 -130t39 -122t113 -82t125 -24.5q250 0 438 127q154 102 213 299q16 61 16 118.5t-12 82.5 q-37 -20 -121 -66.5t-123 -71.5q-78 -47 -139 -127t-61 -115.5t19.5 -51t23.5 -24.5t-2 -12.5t-25 3.5q-53 18 -53 129q0 61 29 116q41 78 296 205l142 72q158 78 194 131q16 23 16.5 39t-5 28.5t3 12.5t16.5 -12q10 -23 10 -43q0 -90 -194 -201q33 -35 55.5 -88t22.5 -82 q0 -127 -85 -230.5t-188 -156.5q-242 -123 -487 -123q-90 0 -174 26.5t-133 81.5q-74 80 -74 185z" />
<glyph unicode="'" horiz-adv-x="296" d="M158 621l8 204q0 14 -2 44t0 41.5t16.5 21.5t53 10t38.5 -35q0 -25 -10 -57.5t-14 -48t-23.5 -77.5t-27.5 -93q-8 -35 -23.5 -35t-15.5 25z" />
<glyph unicode="(" horiz-adv-x="778" d="M61 63q0 229 105.5 459t318.5 404t447 225q8 2 14 2q16 0 17 -14q-4 -20 -37 -35q-227 -74 -415.5 -251t-272.5 -417q-59 -176 -59.5 -379.5t69.5 -345.5q10 -20 -10 -43t-45 -22.5t-37 16.5q-94 188 -95 401z" />
<glyph unicode=")" horiz-adv-x="1058" d="M-74 -328q0 23 35 35q227 74 415.5 252t272.5 418q61 164 61.5 374t-71.5 351q-10 20 8 41q23 25 47.5 24.5t36.5 -16.5q94 -188 94 -403q0 -229 -96 -437q-113 -250 -326 -424t-446 -225q-8 -2 -14 -2q-16 0 -17 12z" />
<glyph unicode="*" horiz-adv-x="1318" d="M219 680q-2 25 35 45q25 12 297 12q-119 193 -119 250q0 29 25 41q10 6 18 6q27 0 49 -45q33 -68 90 -211q35 41 86.5 101.5t81 95.5t43 53.5t28.5 24.5t21 6q16 0 16.5 -23.5t-22.5 -56.5q-109 -147 -182 -242h295q94 -2 94 -26q0 -10 -26.5 -23.5t-75.5 -17.5t-305 -8 q41 -115 74.5 -175.5t37.5 -73t4 -32t-18 -23.5q-4 -2 -8 -2q-25 0 -58 60l-8 18q-8 14 -20 37l-54 102q-20 39 -24 48q-88 -111 -116.5 -153t-35.5 -48q-37 -43 -65 -43h-8q-29 10 -29 37q0 6 3 14t60 80q49 49 129 151q-152 -6 -253 -6q-51 0 -60 27z" />
<glyph unicode="+" horiz-adv-x="1259" d="M188 344q0 29 45 49q10 4 21 4h385q111 244 135.5 290t46 46t21.5 -22q0 -16 -13 -45l-118 -267h356q59 0 59 -26q0 -6 -12 -17.5t-51 -15.5t-379 -8l-154 -355q-12 -29 -53 -38h-12q-39 0 -12 55l155 338q-303 -8 -361.5 -8t-58.5 20z" />
<glyph unicode="," horiz-adv-x="366" d="M70 -256q0 4 57 70.5t74.5 123t3.5 80.5q-35 68 51 68q23 0 38 -24t15 -44q0 -41 -90 -147q-111 -143 -139 -143q-10 0 -10 16z" />
<glyph unicode="-" horiz-adv-x="772" d="M293 342q0 29 45 49q12 6 22 6l304 2q113 0 112 -24q0 -41 -436 -51h-10q-37 0 -37 18z" />
<glyph unicode="." horiz-adv-x="370" d="M193 8q0 16 40 49q57 45 70.5 45t13.5 -12v-35q0 -14 -22.5 -47t-34.5 -33q-68 0 -67 33z" />
<glyph unicode="/" horiz-adv-x="956" d="M39 -37q0 51 363.5 550.5t439.5 571.5q23 20 54.5 20.5t31.5 -13.5q0 -4 -6 -13q-135 -147 -396.5 -492t-404.5 -597q-25 -39 -64 -39q-18 0 -18 12z" />
<glyph unicode="0" horiz-adv-x="1126" d="M88 330q0 111 47 252q92 274 391 409q119 55 211 56q16 0 44 -2.5t56.5 -27t36 -56t-7.5 -43.5q-4 0 -8 4q-31 47 -106 47q-115 0 -238 -81t-210 -204t-116 -285q-8 -51 -8 -126.5t41 -161.5q59 -127 214 -127t312.5 138t221 312t63.5 295q0 162 -96 250q-88 86 -248 86 q-47 0 -58.5 12.5t10.5 23.5t48 11q178 -10 287 -108q147 -125 147 -349q0 -123 -53 -256q-88 -213 -257 -342t-347 -128.5t-270 102.5q-106 125 -107 299z" />
<glyph unicode="1" horiz-adv-x="638" d="M0 -53q0 33 39 55q10 6 18.5 8t114.5 17q18 0 68 4q25 113 123 376t192 482q-137 -133 -246 -205q-29 -18 -28.5 -3t24.5 36q203 176 332 362q14 14 29 15q41 0 68.5 -16.5t27.5 -28.5q0 -2 -2 -5q-365 -719 -443 -1009q41 2 112 2t134 -10q27 -6 22 -22.5t-40 -16.5 q-217 0 -238 -2v-2q-10 -12 -34.5 -17.5t-34.5 8.5l-226 -43q-12 0 -12 15z" />
<glyph unicode="2" horiz-adv-x="1196" d="M121 -25q0 162 186 162h23q635 375 735 617q23 51 22 82q0 86 -75 143q-53 41 -141.5 41t-172.5 -19q-88 -27 -166 -65q-125 -66 -124 -127q0 -16 9 -36.5t-2.5 -28t-25.5 7.5q-39 35 -39 81t58.5 101t144.5 90q158 68 305 68q104 0 191 -27q158 -49 176 -184q2 -8 2 -19 q0 -127 -168 -291q-203 -195 -662 -440q78 -12 213 -52t176 -46t90.5 -6t106.5 8q113 16 127 63q8 25 26.5 24t13.5 -20.5t-12.5 -30t-18.5 -21.5t-18 -17t-22.5 -17.5t-19.5 -15.5q-78 -57 -205 -57q-55 0 -110.5 10t-240 58t-214.5 61q-37 -43 -88 -78t-65.5 -35t-14.5 16 z" />
<glyph unicode="3" horiz-adv-x="1148" d="M166 117q0 33 14.5 67.5t38.5 34.5q8 0 19 -2q25 -14 20 -37q-10 -25 -10 -63q6 -80 74.5 -120t146.5 -40q174 2 333 136t159 310q0 59 -44.5 105.5t-130.5 69.5q-35 -2 -95 -13.5t-77 -11.5q-53 0 -65 25.5t5 44t59 10.5t89 -8q113 0 212.5 63.5t99.5 161.5 q0 68 -58.5 117t-156 50t-198.5 -49t-101 -139q0 -18 -22.5 -26t-22.5 16q0 123 108.5 192.5t274.5 69.5q106 0 186 -41q106 -59 106 -176q0 -66 -45 -135q-61 -94 -192 -137q80 -4 133 -57.5t53 -139.5q0 -139 -99 -251.5t-238.5 -169t-276.5 -56.5q-297 0 -299 199z" />
<glyph unicode="4" horiz-adv-x="960" d="M20 311q0 78 80 123l361 260q221 162 407 377q4 6 11.5 16.5t10.5 15.5t10 10t13 5q20 0 39 -12q23 -10 36 -28.5t0 -45t-128 -250t-172 -352.5q106 6 204.5 40t113.5 83q8 27 23 28t15 -14q0 -43 -90 -123q-115 -102 -305 -102q-98 -244 -127 -418v-6q-16 -16 -37.5 -16 t-31.5 12v12q0 88 120 420l-309 31q-25 4 -68.5 4t-85.5 -31t-61.5 -41t-28.5 2zM225 465q25 2 55.5 2t83 -4t136.5 -15.5t106 -13.5q117 313 182 455q-162 -162 -563 -424z" />
<glyph unicode="5" horiz-adv-x="1120" d="M-6 147q0 41 17.5 80t45.5 39q8 0 19 -4q35 -12 24.5 -43t-10.5 -72q4 -94 83 -139t159 -45h14q131 2 262 69.5t221.5 188.5t90.5 258q0 72 -39 119q-59 72 -201 72q-72 0 -133.5 -20.5t-136 -77t-91.5 -60.5q-29 -6 -26 23q2 20 22 55q141 246 236 362q-2 4 -9 15.5 t-9.5 17.5t-7.5 17.5t-4 17.5t3 12q4 16 33 23q98 23 306 22.5t335 -16.5q29 -4 29 -23q0 -31 -56 -30q-455 0 -534 -47q-37 -23 -117 -173q-45 -63 -76 -122q76 51 235 51t268.5 -52.5t109.5 -184.5t-68.5 -238.5t-174 -176t-230.5 -109.5t-242 -40q-348 0 -348 231z" />
<glyph unicode="6" horiz-adv-x="1056" d="M123 256q0 166 87 339t251 313.5t301 170.5q27 8 52.5 8t63 -6t83 -28.5t64.5 -72.5t19 -90t-5 -69.5t-25.5 -24.5t-18.5 13q4 25 4 59.5t-19 77.5t-58 60q-61 25 -100.5 24.5t-61.5 -8.5q-109 -25 -232 -154q-197 -205 -256 -479q-18 -82 -18 -129v-59 q4 -92 61.5 -151.5t177 -59.5t207.5 110q111 135 111 295q0 82 -51 130t-127 48q-80 0 -174 -77q-10 -8 -21.5 -8.5t-13.5 8t21.5 36t87 55t124.5 27.5h15q104 0 173.5 -57t69.5 -158q0 -190 -165 -338q-141 -125 -310 -124q-131 0 -210.5 61t-98.5 158q-8 49 -8 100z" />
<glyph unicode="7" horiz-adv-x="854" d="M203 -14q0 47 323.5 441t458.5 531q-172 29 -395 29h-58q-231 -8 -274 -174q-8 -37 -27 -25q-10 6 -8 21q31 164 111 214t227 50q49 0 254 -17.5t238 -23.5q25 45 71 62q10 2 19 2q25 0 24.5 -29t-24 -58.5t-58.5 -45.5q-16 -16 -152 -168t-257 -295q-213 -250 -365 -512 q-23 -16 -65.5 -16.5t-42.5 14.5z" />
<glyph unicode="8" horiz-adv-x="1005" d="M70 104q0 84 65 179q55 78 125 127q172 123 262 161q-90 33 -133 81t-43 124q0 156 164 264q119 80 303 80q111 0 173.5 -40t62.5 -107q0 -186 -324 -344q186 -86 186 -232q0 -123 -112 -233q-102 -100 -237.5 -155.5t-258.5 -55.5q-233 0 -233 151zM147 160 q0 -49 40 -83t106 -42q133 -16 242 16q131 45 207.5 127t76.5 164q0 135 -201 199q-33 10 -47 16q-129 -63 -266 -168q-158 -115 -158 -229zM444 834q0 -53 40 -91t175 -90l21 -8q119 59 203 125q55 43 70.5 81t15.5 63.5t-13 54.5q-41 100 -202 100q-94 0 -185 -49 q-125 -67 -125 -186z" />
<glyph unicode="9" horiz-adv-x="1017" d="M84 152q0 33 6 67q4 23 24.5 18.5t18.5 -14.5q-4 -27 -4 -54.5t10 -62.5q16 -61 101 -94q29 -10 45 -10t36.5 2t45.5 4q111 25 231 152q199 211 258 483q18 82 18 129t-2 59q-2 92 -59 151.5t-177 59.5t-209 -110.5t-105 -247.5q-5 -24 -5 -47q0 -80 51.5 -129t131.5 -49 h6q68 0 164 80q10 8 22 6q27 -2 -4 -38t-93.5 -62.5t-123.5 -26.5h-6q-111 0 -181.5 58.5t-70.5 156.5q0 188 166 338q141 125 309 125q131 0 211 -61.5t98 -157.5q8 -49 9 -101q0 -164 -87.5 -339t-251 -316t-300.5 -168q-70 -8 -98.5 -8t-65.5 16t-68 43q-51 47 -51 148z " />
<glyph unicode=":" horiz-adv-x="329" d="M193 8q0 16 40.5 49t53 38t18.5 7q12 5 12 -18v-29q0 -14 -22.5 -47t-34.5 -33q-68 0 -67 33zM297 334q0 6 28.5 32.5t41.5 36.5q27 23 41 23t14 -12v-37q0 -14 -21.5 -45t-33.5 -31q-70 0 -70 33z" />
<glyph unicode=";" horiz-adv-x="339" d="M70 -256q0 4 57 70.5t74.5 123t3.5 80.5q-35 68 51 68q23 0 38 -24t15 -44q0 -41 -90 -147q-111 -143 -139 -143q-10 0 -10 16zM297 334q0 6 28.5 32.5t41.5 36.5q27 23 41 23t14 -12v-37q0 -14 -21.5 -45t-33.5 -31q-70 0 -70 33z" />
<glyph unicode="&#x3c;" horiz-adv-x="776" d="M162 400.5q0 17.5 6 25.5t45 44t156 151q217 211 370 337q12 10 22.5 10.5t10.5 -21t-37 -66.5q-121 -139 -428 -432q139 -262 159.5 -313.5t20.5 -77t-19 -25.5t-40 35q-100 154 -233 284q-33 31 -33 48.5z" />
<glyph unicode="=" horiz-adv-x="1103" d="M274 193q0 31 45 51l21 6h596q111 0 111 -27q0 -14 -25 -19t-39 -7q-43 -6 -336 -14.5t-311.5 -9.5t-22.5 -1q-39 0 -39 21zM332 489.5q2 26.5 41 45.5q14 6 24 6l596 2q111 0 111 -25q0 -20 -111 -33q-6 0 -614 -18q-49 -4 -47 22.5z" />
<glyph unicode="&#x3e;" horiz-adv-x="813" d="M168 57.5q0 20.5 37 63.5q90 110 428 432q-180 334 -180 385q0 20 9 26.5t13 6.5q18 0 39 -35q92 -145 231 -285q10 -12 17 -20q18 -18 18 -23.5v-13.5t-7 -15.5t-10 -10.5t-15.5 -13t-36 -32.5t-109.5 -105.5t-137 -132q-260 -248 -285 -248q-12 0 -12 20.5z" />
<glyph unicode="?" horiz-adv-x="966" d="M193 8q0 16 65 70q33 25 49 24q10 0 10 -16v-31q0 -14 -22.5 -47t-34.5 -33q-68 0 -67 33zM249 893q1 49 21 106q35 78 119 91q23 2 76 28q98 51 225 51l39 -2q72 -4 127 -47q82 -63 82 -190q0 -123 -96 -230q-100 -111 -240 -204q-182 -129 -199 -209 q-4 -18 -24.5 -18.5t-17 31.5t39 79t66.5 75.5t107.5 95t118.5 112t76 123t34 164.5t-39 136.5t-105 49.5q-112 0 -251 -131q-12 -12 -69.5 -86t-74 -74t-15.5 49z" />
<glyph unicode="@" horiz-adv-x="1540" d="M25 369q0 164 80.5 322.5t210.5 274t302.5 188.5t346.5 73h8q221 0 353 -104.5t132 -281.5t-174 -417q-131 -188 -289 -188h-4q-86 0 -112 81q-6 25 -7 56q0 96 41 209q-8 -4 -79.5 -87t-163.5 -158t-170 -75t-133 72q-31 45 -31 86q0 121 156 260q96 84 196 145.5 t150.5 77t81.5 15.5q102 0 147 -31q39 -31 39 -60q0 -23 -16 -10q-25 41 -105 41t-181.5 -53t-182 -127t-137 -168t-56.5 -135q0 -76 45 -76q16 0 55 19.5t78 54.5q133 104 238 223q162 180 184.5 180t58 -13t23.5 -38q-55 -80 -90 -169t-38 -128t-3 -55q0 -52 29 -70 q14 -12 39.5 -12t79 40t100.5 95q156 190 155 412q0 147 -116.5 235t-304.5 88q-205 0 -397.5 -112.5t-312.5 -301t-120 -383t119 -311.5q123 -119 379 -119q154 0 352.5 87.5t292.5 188.5t137 182t43 132t-19.5 72.5t-8 31t25.5 -4.5q57 -55 57 -127q0 -170 -145 -316 q-119 -123 -338 -202.5t-401 -79.5q-293 0 -446.5 136t-153.5 335z" />
<glyph unicode="A" horiz-adv-x="1738" d="M23 25q0 20 10 37.5t20 9t10 -46.5q0 -70 54.5 -105t132.5 -35q168 0 330.5 109.5t443.5 429.5q-301 37 -397 37q-260 0 -322 -170q-8 -23 -8 -42.5t8 -34.5t3 -24.5t-17 -8.5t-21 14q-23 39 -22 75q0 127 46 187.5t107 77.5q74 20 172.5 20t495.5 -78q111 127 336 408.5 t225 285.5h2q2 2 10 7q47 28 103 28h4q20 0 20 -20q0 -2 -2 -5t-4 -8.5t-4 -9.5q-197 -326 -305 -733l-6 -14l51 -2q16 -2 58 -2t89.5 19.5t60.5 42t23.5 10t2.5 -26.5q-23 -41 -80 -60q-49 -20 -97.5 -20h-62.5l-55 2q-39 -178 -39 -283.5t57 -105.5q55 0 172 88t219 227 q6 8 16.5 4t10.5 -10t-3 -15.5t-32 -45.5q-86 -115 -211 -218q-90 -71 -201 -71q-63 0 -91.5 56t-28.5 143.5t36 238.5q-72 6 -243 29q-285 -352 -473 -490q-162 -121 -336 -121q-111 0 -189.5 55.5t-78.5 164.5zM1139 461l215 -35q57 223 186 553q2 4 5 11t5 11 q-256 -350 -411 -540z" />
<glyph unicode="B" horiz-adv-x="1339" d="M31 727q8 86 99 170t230.5 160t442.5 127q169 27 283 27q2 -1 4 -1q116 0 204 -19.5t145.5 -76.5t57.5 -136t-66.5 -148.5t-166.5 -106.5q-195 -72 -373 -80q88 -53 145.5 -93t123 -105.5t84 -112.5t18.5 -84q0 -121 -93 -232q-61 -76 -170.5 -121t-232.5 -45 q-262 0 -287 185q-4 4 -4 12q-78 -125 -129 -125q-14 0 -46 7.5t-33 15.5t-1 34.5t39 128t88 199.5q96 184 191 357q16 37 16 55t-2 29q8 57 99 150t165 93q25 0 66 -18.5t49 -50.5q2 -14 1 -17.5t-11.5 0.5t-12.5 4q-66 0 -156.5 -97t-174.5 -239q-174 -287 -250 -471 q-16 -41 -17 -63q0 -31 27 -31t72 56q44 56 63 56q18 -1 29.5 -11.5t15.5 -21.5t6 -31.5t4 -26.5q33 -145 207 -146h8q141 0 242 66q111 74 111 183.5t-103 229.5q-33 37 -96 93q-135 117 -139 149v8q-1 28 27 46q32 22 59 22q100 0 274 72q256 104 275 231v12q0 37 -33 70 q-55 59 -234 59q-244 0 -567 -88q-197 -53 -346 -151q-164 -109 -164 -232q0 -27 16.5 -52.5t38 -36.5t56.5 -24.5t50 -20.5t10 -17t-29 -6q-68 4 -135.5 56t-67.5 122q0 10 2 20z" />
<glyph unicode="C" horiz-adv-x="1095" d="M41 213q0 217 164 467q223 340 540 471q123 49 236 49q139 0 199 -65q39 -45 39 -105q0 -113 -119 -231.5t-263.5 -189t-250.5 -81.5q-43 -4 -41 23q2 37 51 41q164 14 301 99t211 227q35 55 35 114q0 115 -121 115q-104 0 -271 -98.5t-343.5 -300t-245.5 -422.5 q-29 -88 -29 -163t43 -130q76 -98 248 -101h22q190 0 411.5 97.5t354.5 285.5q10 14 21.5 6t11.5 -14t-4 -10q-152 -207 -373 -311.5t-428 -104.5q-217 0 -327 123q-72 80 -72 209z" />
<glyph unicode="D" horiz-adv-x="1779" d="M162 666q0 143 125 256q223 199 721 245q76 7 177 7h3q100 0 254 -30q156 -30 256 -110q160 -131 160 -343t-126 -391t-320.5 -277.5t-416 -98.5t-358.5 105q-2 -2 -19.5 -35t-35.5 -64q-54 -87 -102 -87q-35 0 -66 46q-43 63 -43 151.5t18 213.5q2 12 -16 57 q-6 20 14 41q16 12 46 20.5t41 0.5t-5 -44t-16 -67t63.5 -91t77.5 -65q49 121 209 453q18 37 18 55.5t-4 28.5q10 59 130 188.5t194 129.5q29 0 71.5 -19.5t49.5 -54.5q0 -12 -2.5 -13.5t-10.5 3t-12 4.5q-66 0 -155 -95.5t-177 -248.5q-156 -266 -250 -471q127 -92 277 -93 q195 0 373 100.5t286 231.5q176 215 176 424q0 154 -121.5 274.5t-385.5 129.5h-25q-209 0 -440.5 -69t-395 -196t-163.5 -264q0 -35 21.5 -61.5t45 -36.5t59 -22.5t47 -17.5t13.5 -11q4 -16 -29 -17q-76 6 -152.5 56.5t-76.5 117.5q0 11 2 21zM442 184q0 -276 39 -276 q29 0 82 143q4 6 4 8q-14 12 -60.5 60.5t-64.5 64.5z" />
<glyph unicode="E" horiz-adv-x="1468" d="M49 150.5q0 107.5 52.5 182.5t125 115.5t174.5 67.5q152 41 338 51q-133 152 -157 351q-2 23 -2 43q0 74 35.5 136t119.5 88.5t125 26.5t60.5 -5t34 -10t28.5 -14t24.5 -15.5t25 -19.5t20.5 -18.5t22.5 -20.5t20.5 -17q31 -37 59 -43q4 -5 18.5 -6t25.5 -11t34.5 -67.5 t23.5 -95.5t-9 -79.5t-29 -41.5q-35 0 -57.5 80.5t-33.5 101.5q-57 121 -122 176q-59 55 -121 55q-27 0 -54 -10q-131 -55 -131 -258q0 -66 25 -155t76 -156q10 -12 108 -21q51 -6 59.5 -35.5t-24.5 -46.5q-7 -9 -30 -9q-36 0 -111 22q-33 8 -43 10q-111 -2 -250 -49 t-256 -144.5t-117 -214.5q0 -88 72 -142t230.5 -54t354 49t307 106.5t220.5 161.5t109 180q0 12 -1.5 20.5t3.5 10.5q12 6 20 -2q27 -51 27 -80q0 -84 -56 -151q-96 -117 -217 -184.5t-330.5 -115t-349 -47.5t-236.5 25t-169 98.5t-72 181z" />
<glyph unicode="F" horiz-adv-x="1085" d="M18 748.5q0 37.5 11 64.5q0 23 2 33q31 145 186 225q186 96 455 96q147 0 362.5 -34.5t321.5 -38.5q58 65 110 65h2q25 0 39.5 -12t14.5 -24.5t-12.5 -25t-47.5 -38t-55 -45.5q-98 -96 -98 -166q0 -31 13 -51.5t-3 -25.5t-31 13q-18 12 -18 82q0 92 33 154q4 6 13 21.5 t15 21.5h-76.5t-248 16.5t-279.5 16.5t-145 -13q-195 -27 -335.5 -107.5t-166.5 -203.5q-4 -12 -4 -29.5t11 -42t27.5 -39t50.5 -35t45 -29.5t4 -15.5t-14 -6.5t-16 3q-70 20 -118 76.5t-48 94zM309 -39q0 100 183 453q-49 -6 -75 -6t-43.5 15t-17.5 39.5t43 45t66.5 20.5 t40 -19.5t20.5 -19.5h6q43 78 78 143.5t35 85t-6 30.5q12 59 101 151t163 92q33 1 80 -25q42 -23 42 -58q0 -4 -1 -9q-14 10 -27 10q-139 0 -383 -417q68 6 142 18q246 31 278.5 31t41.5 -1t16.5 -5.5t9.5 -8.5q2 -12 -47 -28q-119 -39 -482 -78q-172 -311 -172 -383 q0 -35 30 -26t52 38q54 70 72 70q6 0 6 -12.5t-29 -40.5l-20 -31q-55 -84 -80.5 -98.5t-41 -14.5t-47.5 7.5t-33 15.5t-1 16z" />
<glyph unicode="G" horiz-adv-x="1636" d="M152 354q0 313 282 574q314 280 765 280h3q129 0 223 -49q76 -41 76 -123q0 -35 -20 -39q-27 -6 -29 31q-8 135 -209 135q-90 0 -222 -44t-273.5 -126t-264.5 -181t-201.5 -224t-78.5 -250t87 -191.5t214 -66.5q139 0 323 49q102 31 194.5 87t141.5 99q92 78 187 172 q49 125 161 146q23 4 49 4t54 -4l24 -4q18 -4 19 -11q0 -20 -27 -18h-4q-111 0 -182 -207q-55 -166 -105 -297q109 25 144 25t49 -8.5t5 -18.5t-18.5 -6t-33 4t-92 -17.5t-80.5 -49.5q-205 -518 -496 -721q-131 -90 -233 -90q-39 0 -74 12q-94 35 -94 139q0 125 129 273 q250 289 682 428q53 162 98 321q-367 -346 -635 -393q-63 -12 -127 -12q-207 0 -327 133q-84 94 -84 239zM526 -606q0 -23 6 -45q20 -80 103 -80q121 0 254 162q199 248 323 596q-358 -117 -567 -379q-119 -145 -119 -254z" />
<glyph unicode="H" horiz-adv-x="1538" d="M-188 -152.5q0 9.5 3 22.5t13 9t20 -39q18 -59 78 -76q45 -8 79 -8t58 8q299 94 560 762l-109 6q-29 2 -53 3q-260 0 -320 -168q-10 -23 -10 -43.5t12.5 -41t-7 -25.5t-32.5 13q-23 41 -22 76q0 125 46 185.5t108 78.5q74 20 163 21l125 -13q66 -6 125 -18 q49 131 119 352q-109 -96 -266 -112q-20 -2 -21.5 14t23.5 20q88 8 181 90.5t142 192.5q4 25 67.5 25t61.5 -25q-12 -31 -91 -236.5t-136 -336.5q53 -10 156 -35q209 -47 338 -62q119 252 148.5 323t29.5 89.5t-6 28.5q6 57 89 150t156 93q33 0 79 -23.5t46 -60.5 q0 -8 -10 -1.5t-14 6.5q-51 0 -119 -73t-133 -188q-100 -178 -178 -352q176 0 235 74q10 18 20.5 5t-7 -38.5t-77 -50.5t-188.5 -25q-96 -227 -96 -356q0 -100 58.5 -100t174 90t218.5 227q6 8 18 3t7 -18.5t-32 -51.5q-86 -117 -210 -218q-91 -71 -198 -71h-3 q-55 0 -85 32.5t-33 61.5t-3 53.5t8 75.5q20 132 90 277l-508 67q-311 -707 -604 -797q-53 -18 -94 -18q-154 0 -188 129q-2 8 -2 17.5z" />
<glyph unicode="I" horiz-adv-x="880" d="M16 -6q0 18 13 51q14 33 56 42q11 2 21 2q29 0 54 -19q55 -45 108.5 -45t109.5 20.5t114 93.5q166 221 348 932q-188 -16 -313.5 -76.5t-125.5 -158.5q0 -33 17.5 -57.5t32.5 -35.5q29 -18 73 -41q25 -18 11 -22q-6 0 -15 2q-49 10 -104.5 59.5t-57.5 112.5q-6 23 -6 39 q0 88 74 154q136 116 431 116h5q0 8 6 21q4 24 59 24h5q51 0 49 -24q-8 -16 -10 -27q131 -8 219 -53q29 -14 42 -34.5t13 -29.5q0 -7 -13 -7q-18 1 -62 15q-74 26 -228 25q-10 -43 -70.5 -217t-77 -216t-45 -116.5t-51 -122t-51.5 -106.5q-49 -100 -117 -189 q-51 -59 -77 -79h135t176 5q35 2 55 2q24 0 28 -3q7 -6 1 -15q-12 -20 -32.5 -31.5t-301.5 -19.5t-350.5 -8h-100.5q-47 2 -47 37z" />
<glyph unicode="J" horiz-adv-x="1175" d="M70 -74.5q0 119.5 125 262.5q252 289 679 424q6 18 39 121q72 233 134 340h-74t-139 -10q-231 -27 -330 -117q-51 -49 -51 -112q0 -31 17 -55.5t34 -35.5q27 -18 71 -41q25 -18 11 -22q-6 0 -15 2q-49 10 -104 59.5t-57 112.5q-6 23 -7 37q0 68 41 121q80 100 283 137 q88 14 180 14t191 -16q53 59 108 59q14 0 19.5 -7t-0.5 -15t-27.5 -15.5t-50.5 -31.5q70 -20 96.5 -33.5t39.5 -34t13 -29.5q0 -18 -56 0.5t-132 28.5q-37 -88 -78 -241.5t-49 -184.5q111 27 148.5 27t46 -5.5t9.5 -13.5t-3 -13t-13.5 -1t-34 4t-92 -17.5t-79.5 -52.5 q-188 -518 -480 -721q-129 -92 -235 -92q-39 0 -74 13q-104 35 -104 154.5zM176 -59q0 -23 4 -45q20 -78 103 -78q121 0 254 162q197 240 325 593q-358 -117 -567 -378q-119 -145 -119 -254z" />
<glyph unicode="K" horiz-adv-x="1144" d="M-463 -152.5q0 9.5 3 22.5t13.5 9t20.5 -39q20 -61 78 -76q45 -8 78.5 -8t58.5 8q211 68 410 431q160 301 295 757q-109 -96 -267 -112q-14 0 -20 7t0 16t20 11q88 8 183.5 91.5t142.5 191.5q6 27 70.5 27t60.5 -27q-35 -86 -100 -254q-143 -369 -234 -551q59 74 185 209 v29.5t2 50.5q6 23 20 34t25 -22q0 -10 4 -30l2 6q51 57 340 298.5t344 267.5t93 26t52.5 -17.5t14.5 -35t-17.5 -33t-43 -27.5t-160 -88t-244.5 -150q-266 -180 -369 -292q47 -170 94 -268.5t148.5 -222.5t185.5 -124q35 0 49.5 18.5t9.5 47.5q-12 57 -36.5 93t-5 36 t37 -17.5t32.5 -51.5t15 -58q-2 -57 -55 -90t-102 -33q-92 0 -168 54t-127 149q-92 172 -133 397q-229 -268 -316 -387q-211 -342 -403 -402q-55 -18 -96 -18q-152 0 -189 129q-2 8 -2 17.5z" />
<glyph unicode="L" horiz-adv-x="1052" d="M20 53q0 43 54 58h4l137 -13q45 0 68.5 9.5t35 5.5t-5 -15.5t-54.5 -17.5t-46 -10q33 -12 72 -35l108 -68q49 115 70 180q-12 -6 -32.5 -9t-20.5 12q0 14 24 22l45 12q33 94 73 228.5t40 136.5q123 393 213 495.5t166 133t114 30.5q109 0 172 -86q43 -59 43 -149 q0 -170 -115.5 -338t-279.5 -283.5t-340 -177.5q-61 -145 -116 -240q313 -201 444 -243q152 -51 289 -51q150 0 248 81q51 41 51 86.5t-17.5 80t3 37.5t32.5 -21q31 -68 31 -140v-24q-2 -78 -72 -137q-82 -70 -252 -70q-115 0 -201.5 30.5t-137 50t-125 68t-105.5 68.5 q-61 41 -209 152q-106 -184 -188 -185q-20 0 -24.5 7.5t0.5 13.5t11 6q68 6 152 190q-115 76 -193 103q-70 -29 -96.5 -29t-34.5 2q-35 12 -35 43zM588 231q236 106 406.5 288.5t213.5 412.5q9 43 9 80q0 155 -116 155h-1q-104 0 -178 -106q-82 -115 -119 -214t-53 -147 q-41 -115 -64 -208q-68 -188 -98 -261z" />
<glyph unicode="M" horiz-adv-x="2244" d="M-18 -74q0 63 49 142q84 131 261 322.5t300 303.5l78 264q-102 -96 -267 -112q-20 -2 -21 12t17 19l9 2q88 8 181 92t140 192q8 26 67 26h4q64 -1 62 -26l-141 -350q279 236 399 242h29q162 0 223 -107q53 -90 53 -211q0 -180 -110 -516q-18 -59 -15 -60t11 12t25.5 40 t82.5 135q236 395 479 660q80 84 160 84q47 0 71.5 -33t24.5 -72t-17 -108.5t-105 -290.5q-109 -270 -109 -443q0 -133 74 -133q53 0 141 68q135 113 217 223q10 14 19.5 6t9.5 -13t-4 -9q-39 -61 -123 -148q-137 -145 -221 -172q-41 -14 -80 -14q-135 2 -135 194 q0 100 24.5 194.5t40 146t40 120t40.5 105.5q53 133 65.5 165.5t12.5 56t-12.5 33t-33 9.5t-63.5 -37q-158 -135 -355.5 -426t-276.5 -457q-16 -35 -33 -34.5t-35 30t-18 43t2 17.5q53 135 76.5 288.5t23.5 251.5q0 346 -150 346q-139 0 -505 -335q-18 -53 -80 -193 q-84 -182 -150 -305q-184 -346 -348 -346q-104 0 -104 106zM53 -58.5q0 -52.5 39 -52.5q127 0 311 355q102 197 148 319q-109 -102 -240 -250.5t-186 -222.5q-72 -96 -72 -148.5z" />
<glyph unicode="N" horiz-adv-x="1607" d="M-352 -147.5q0 8.5 2 20.5t12 7t21 -38q14 -55 71 -69q35 -10 68 -11h3q31 0 60 11q197 61 389 411q133 256 271 721q-113 -102 -266 -112q-20 -2 -21.5 14t23.5 20q88 8 182 92.5t141 192.5q8 26 67 26h5q64 -1 61 -26q-8 -23 -18 -108.5t-10 -169.5q0 -360 112 -678 q80 -224 203 -224h1q123 0 229 215t146 426t40 296t-8.5 127t-55.5 180q-2 6 14.5 21t24.5 17q39 0 73 -47t68 -110q59 -115 111 -115l25 6q18 0 22 -20q0 -16 -14.5 -27.5t-30.5 -13.5q-49 0 -131 71q2 -31 2 -63q0 -164 -65.5 -399.5t-197.5 -434t-269 -198.5 q-115 0 -198 90t-126 235q-78 276 -78 596q-141 -371 -270 -610q-217 -385 -418 -446q-51 -16 -92 -16q-2 0 -5 -1q-38 0 -67 8q-84 29 -104 115q-2 10 -2 18.5z" />
<glyph unicode="O" horiz-adv-x="1445" d="M94 508q0 147 87 289.5t233 246.5q102 74 234 118t253 46q252 0 409.5 -137t157.5 -381q0 -305 -210.5 -545.5t-469.5 -300.5q-76 -18 -145 -18q-190 0 -315 141.5t-125 356.5q0 285 194 471q123 119 301 161q53 10 99 11q102 -1 149 -49q33 -34 33 -44q0 -4 -6 -4 l-33 17q-43 16 -74.5 16t-54.5 -6q-246 -57 -397 -295q-117 -184 -117 -371q0 -256 186 -331q61 -27 134 -27t149 18q137 31 278.5 171.5t231.5 331t90 356.5q0 217 -129 323q-109 86 -285 86q-27 0 -57 -2q-227 -14 -420 -153q-141 -98 -237.5 -244t-106.5 -289 q-2 -33 -19.5 -15.5t-17.5 52.5z" />
<glyph unicode="P" horiz-adv-x="1103" d="M66 727q0 18 4 37q-4 27 -4 33q29 154 301 293q215 100 507 100q180 0 357 -49q119 -41 180.5 -117t61.5 -154q0 -119 -94.5 -210t-211.5 -140q-276 -119 -651 -127q-80 -147 -120 -239.5t-40 -119t27 -26.5t72 56q43 55 60 55h1q12 -12 -27 -53q-4 -4 -14 -21.5t-17 -28 t-19.5 -27t-22.5 -26.5t-23 -20q-25 -21 -43 -21h-2q-18 0 -48 8q-32 8 -33 15.5t-1 13.5q0 106 174 436q-27 0 -42 2t-18 16.5t8 16.5t23.5 0t43.5 -2q104 188 124.5 230t20.5 60.5t-2 29.5q8 57 99 150t165 93q25 0 67 -18.5t48 -42t3 -26.5t-13.5 1t-12.5 4 q-147 0 -419 -481q223 10 457.5 89t359.5 208q72 70 71 147q0 229 -469 230q-268 0 -512 -82q-127 -45 -216 -121t-105 -172q-2 -10 -2 -26.5t13 -40t31.5 -36t52.5 -28.5t45 -25t5 -17.5t-26 -4.5q-63 10 -118.5 63.5t-55.5 114.5z" />
<glyph unicode="Q" horiz-adv-x="1372" d="M92 395q0 295 211 527.5t469 289.5q74 16 127 17q154 0 256 -90q127 -113 127 -330q0 -213 -125 -406q-190 -289 -508 -344q2 -2 56 -22l108 -68q211 68 372 264.5t220 436.5q29 123 29 232.5t-52.5 186t-148.5 85.5q-31 2 -32 12t13.5 16t28.5 4q141 -20 201.5 -121.5 t60.5 -240.5q0 -274 -191.5 -546.5t-441.5 -365.5q301 -195 443 -239q150 -49 274 -49q158 0 258 80q54 41 54 89q0 45 -19 79q-20 34 2.5 35t32.5 -21q33 -63 33 -164q-4 -76 -74 -136.5t-186 -68.5q-29 -2 -73 -2t-118 13.5t-139.5 36t-153.5 72.5t-131 80t-132 95.5 t-116 83.5q-84 -23 -125 -23q-1 0 -2 1h-45q-248 0 -405.5 133t-157.5 368zM195 338q0 -211 133 -313q109 -84 280 -84q90 0 160 16q-74 51 -160 82q-92 -25 -111.5 -25h-23.5q-33 2 -46 25.5t2 47.5t50 26l150 -13q244 72 408.5 317t164.5 466t-160 282q-51 18 -112 19h-4 q-60 0 -127 -17q-215 -49 -409.5 -315t-194.5 -514z" />
<glyph unicode="R" horiz-adv-x="1103" d="M66 727q0 19 4 37q-4 27 -4 33q29 154 301 293q215 100 507 100q180 0 357 -49q119 -41 180.5 -117t61.5 -154q0 -119 -94.5 -210t-211.5 -140q-260 -113 -594 -125q27 -33 86.5 -107.5t90 -111.5t89 -103.5t98.5 -102.5t101.5 -86t116.5 -79q193 -102 336 -102l70 6 q70 12 110.5 56.5t40.5 97.5q0 20 -5 43.5t13 23.5q20 -2 27.5 -29.5t7.5 -68.5t-20 -94q-23 -74 -125 -113q-63 -24 -119 -24h-4q-172 0 -348 96q-117 66 -210 163t-155.5 175t-139.5 193.5t-108 154.5l-14 2q-156 -287 -156 -346q0 -31 27 -31t72 56q43 55 60 55h1 q12 -12 -27 -53q-4 -4 -14 -21.5t-17 -28t-19.5 -27t-22.5 -26.5t-23 -20q-25 -20 -43 -20.5t-51 7t-33 27.5q0 92 168 428q-67 6 -67 48q0 9 2 22q14 35 51 35h1q38 0 60 -19q16 33 39 74q80 143 80 182q0 10 -2 21q8 57 99 150t165 93q25 0 66 -18.5t49 -50.5 q2 -14 1 -17.5t-11.5 0.5t-12.5 4q-143 0 -409 -465q25 -10 48 -10t40 2q209 23 408.5 98.5t310.5 190.5q72 70 71 147q0 229 -469 230q-268 0 -512 -82q-127 -45 -216 -121t-105 -172q-2 -10 -2 -26.5t13 -40t31.5 -36t52.5 -28.5t45 -25t5 -17.5t-26 -4.5 q-63 10 -118.5 63.5t-55.5 114.5z" />
<glyph unicode="S" horiz-adv-x="1212" d="M227 397q164 113 344 113q43 0 39 -14t-61 -15.5t-147.5 -39.5t-168.5 -109q-102 -92 -102 -185q0 -57 55.5 -102t211 -45t307.5 49q328 109 409 238q33 47 33 80q0 94 -115 147q-133 61 -373 141q-92 31 -156.5 81t-64.5 121t77 139.5t185 109.5q233 88 396 88 q225 0 225 -113q0 -45 -37 -104q-31 -55 -68.5 -75.5t-37.5 3.5q0 2 22 25q68 63 68 104q0 88 -174 88q-74 0 -195 -27.5t-233 -88.5q-131 -72 -131 -125q0 -43 79 -82q43 -20 171 -68.5t207 -84.5t149.5 -101.5t70.5 -145.5t-94 -174q-143 -137 -372.5 -228t-393.5 -91 q-324 0 -324 181q0 183 199 310z" />
<glyph unicode="T" horiz-adv-x="688" d="M18 748.5q0 37.5 11 64.5q0 23 2 33q31 145 186 225q186 96 459 96q166 0 435 -36.5t300 -36.5q55 61 84 63q10 2 28.5 2t33 -13t14.5 -27.5t-12.5 -29t-50.5 -42t-60 -50.5q-106 -106 -107 -186q0 -35 14.5 -56.5t-2 -30.5t-34.5 13q-21 16 -21 106q0 87 37 158 q16 27 49 62q-90 2 -270 16q-223 19 -305 19h-5q-81 0 -222 -15q-195 -27 -335.5 -107.5t-166.5 -203.5q-4 -12 -4 -29.5t11 -42t27.5 -39t50.5 -35t45 -29.5t4 -15.5t-14 -6.5t-16 3q-70 20 -118 76.5t-48 94zM309 -20.5q0 26.5 39 128t90 199.5q94 184 189 357 q18 35 18 54t-6 30q12 59 101 151t163 92q33 1 80 -25q42 -23 42 -58q0 -4 -1 -9q-14 10 -27 10q-86 0 -215 -168q-215 -279 -364 -639q-16 -43 -16.5 -58t-0.5 -19q8 -20 34 -12.5t48 36.5q54 70 72 70q6 0 6 -12.5t-29 -40.5l-20 -31q-55 -84 -80.5 -98.5t-41 -14.5 t-47.5 7.5t-33 15.5t-1 34.5z" />
<glyph unicode="U" horiz-adv-x="1077" d="M23 752q4 18 26 22q80 8 238.5 136t191.5 190q8 24 73 24h5q53 -4 51 -24q-352 -594 -399 -848q-10 -57 -10 -102q0 -143 102 -144q168 0 496 318q137 893 438 893q106 0 133 -70q12 -31 12 -64.5t-14 -70.5q-33 -109 -107.5 -222.5t-209 -272.5t-158.5 -191 q-29 -145 -37 -367v-22q0 -195 68 -277q29 -33 54 -33t46 25q10 16 25.5 31.5t24.5 10.5t3 -26q-20 -33 -26 -39q-33 -41 -115 -41h-14q-119 2 -152 201q-8 63 -8 171t26 290q-328 -316 -553 -316q-145 0 -145 189q0 172 170 520q92 190 109.5 230t1.5 38q-16 -4 -47 -26 q-160 -135 -279 -144q-20 -2 -20 11zM924 457q115 109 228.5 278.5t150.5 308.5q10 37 10 68t-13.5 43t-25.5 12q-29 0 -76 -51q-186 -207 -274 -659z" />
<glyph unicode="V" horiz-adv-x="1257" d="M41 891q0 98 91 165.5t205 87t183.5 19.5t108.5 -2q-2 14 -12.5 30.5t12.5 22.5h6q20 0 39 -30l10 -29q117 -16 195 -51q31 -12 49 -42t-13 -28q-18 0 -67 17.5t-162 21.5q-10 -207 -113 -440q-196 -457 -196 -619q0 -106 84 -106q102 0 291 143q223 166 430 496 q27 43 100 164q141 233 238 352q61 76 138 115t120 39t65.5 -11.5t22.5 -20.5t-11 -9l-22 2q-68 0 -191 -150q-78 -94 -216 -280.5t-199 -266.5q-262 -330 -452.5 -478t-350.5 -148q-184 0 -184 153q0 106 166 492q195 451 219 573q-211 0 -372 -62.5t-161 -176.5 q0 -31 16.5 -55.5t32.5 -35.5q33 -20 74 -41q25 -18 8 -22q-6 0 -14 2q-47 10 -102.5 59.5t-57.5 112.5q-8 20 -8 37z" />
<glyph unicode="W" horiz-adv-x="2068" d="M85 101.5q58 99.5 113.5 184.5t133.5 200.5t110 164.5q219 313 273 420q-47 4 -117 4q-244 0 -405 -96q-100 -59 -101 -148q0 -29 16.5 -53t32.5 -35q33 -20 74 -41q25 -18 8 -22q-6 0 -14 2q-47 10 -102.5 59.5t-57.5 112.5q-8 20 -8 35q0 88 68.5 152.5t177.5 88.5 q147 33 263 33t195 -18q6 31 -2 49t15 23q4 2 6 2q23 0 35 -33q4 -23 -2 -53q37 -10 74.5 -25.5t56 -45.5t-12.5 -28q-18 0 -58 13.5t-81 17.5q-63 -184 -235 -440q-371 -547 -371 -699q0 -67 64 -67h2q102 0 329 151q350 244 594 588q-2 57 -2 139t12 162q6 43 46 80t61 37 q27 0 35 -47l4 -37v-37q0 -158 -62 -285v-18q0 -229 101.5 -413.5t234.5 -184.5q115 0 203 119q145 199 145 485q0 260 -114 383q-68 72 -162 72q-78 0 -133 -41q-23 -14 -33 2t2 26q109 80 207 80t162 -45q157 -101 157 -399v-4q0 -129 -36 -262q-53 -195 -178.5 -344.5 t-274.5 -149.5h-4q-162 0 -269.5 162t-107.5 362q0 25 2 52q-100 -127 -252.5 -271.5t-286.5 -236.5q-229 -170 -428 -170q-161 0 -161 113q0 75 58 174.5z" />
<glyph unicode="X" horiz-adv-x="1392" d="M-430 -100q0 27 10 44t20.5 9t10.5 -62.5t55 -91.5q61 -39 140 -39t160 29t174 81t178 114.5t171 136.5q135 115 277 262q-68 211 -68 417t21 292q-47 4 -98.5 4t-133 -7.5t-181 -34t-160 -78.5t-60.5 -107.5t26.5 -80t66.5 -42t46 -21.5q20 -12 0 -20l-20 -3 q-49 12 -105.5 61.5t-56.5 110.5q-8 20 -8 35q0 88 71.5 153.5t182.5 90.5q143 33 263 33t200 -21q23 27 43 29h5q30 0 29 -49l43 -19q31 -16 50 -45q6 -10 6 -16q0 -9 -15 -9q-17 0 -53 13l-41 10q-10 -82 -10 -166q0 -201 55 -417q123 143 308.5 398t220.5 298 q10 10 19 10t22.5 -8t-0.5 -33q-281 -426 -549 -735q45 -143 104.5 -242.5t96 -126t63.5 -26.5t47 6q59 16 159.5 108.5t143.5 157.5q8 12 19.5 6t11.5 -10q0 -27 -92 -129q-199 -221 -334 -221q-47 0 -92 27.5t-109.5 115.5t-114.5 221q-145 -162 -291.5 -290.5 t-248.5 -192.5q-244 -152 -406 -152q-111 0 -196 62q-76 55 -76 160z" />
<glyph unicode="Y" horiz-adv-x="1077" d="M14 -633q0 123 129 271q254 291 680 428q14 33 67.5 231.5t80.5 286.5q-182 -276 -379 -463t-359 -187q-145 0 -145 189q0 172 170 520q92 190 109.5 230t1.5 38q-16 -4 -47 -26q-160 -135 -279 -144q-20 -2 -20 11q4 18 26 22q80 8 238.5 136t191.5 190q8 24 73 24h5 q53 -4 51 -24q-352 -592 -399 -848q-10 -57 -10 -102q0 -143 102 -144q84 0 192.5 87t215.5 222q252 328 389 654q37 86 57 102q43 72 172 72l94 -13q23 -4 23 -18q0 -2 -2 -6q-6 -16 -22.5 -15t-24.5 1q-66 0 -115 -53.5t-86 -154t-139.5 -428t-114.5 -360.5q106 27 142 27 t46 -6q14 -12 6 -22.5t-16 -6.5t-31.5 4t-93 -17.5t-82.5 -49.5q-205 -518 -495 -721q-129 -90 -234 -90q-39 0 -71 12q-96 35 -97 141zM125 -606q0 -25 6 -45q20 -80 102 -80q121 0 252 162q199 240 326 596q-354 -117 -567 -379q-119 -145 -119 -254z" />
<glyph unicode="Z" horiz-adv-x="1073" d="M20 39q0 39 43 59q20 2 62.5 -7t62.5 -11q135 47 455 389q-98 -6 -131 -6t-46 1t-30.5 17.5t-17.5 41t41 42t55 17.5h24.5t27 -20.5t22.5 -20.5q31 -2 61.5 -2t59.5 2q25 27 79 86l84 90q224 239 345 305q-256 80 -504 80q-117 0 -224 -21q-84 -23 -130 -70.5t-46 -72.5 t8.5 -41t8.5 -27.5t-9.5 -9.5t-32 30t-22.5 67.5t29 82.5q59 88 161.5 123t252.5 35q236 0 579 -88q47 47 99.5 68.5t81 21.5t40.5 -37v-10q0 -72 -66.5 -114t-119.5 -42q-18 0 -35 4q-49 -27 -87 -60.5t-58.5 -51t-53 -51t-49 -51t-54.5 -59.5t-52 -56q-66 -72 -107 -123 q178 14 227.5 14h61.5t24.5 -3t18.5 -7q14 -12 -43 -33q-88 -25 -354 -43l-96 -102q-205 -209 -369 -303q-14 -14 -14 -29.5t24 -32.5q57 -31 206 -117t228.5 -124.5t190 -69.5t168 -31t86.5 4q100 14 162 82q29 32 29 75q0 44 -36 99q-14 27 2.5 30t30.5 -21 q41 -66 58 -164q2 -12 2 -27q0 -61 -48 -117q-55 -66 -185 -66q-1 1 -2 1q-132 0 -271.5 47t-251.5 121q-356 229 -483 276q-68 -35 -95 -35q-78 0 -78 66z" />
<glyph unicode="[" horiz-adv-x="915" d="M145 -25q0 53 266.5 512t354.5 582q16 20 26.5 26.5t36.5 6.5h236q23 0 22.5 -8.5t-15.5 -23.5t-36 -17q-104 -10 -198 -11q-133 -184 -321.5 -492t-291.5 -544h213q37 0 15.5 -23.5t-43.5 -25.5q-94 -10 -224 -10q-41 0 -41 28z" />
<glyph unicode="\" horiz-adv-x="655" d="M84 1087q0 18 36 18.5t52 -20.5q51 -70 251 -555t200 -559q0 -20 -21 -20q-45 0 -55 39q-63 250 -216 592t-245 497q-2 4 -2 8z" />
<glyph unicode="]" horiz-adv-x="915" d="M129 -45q0 8 13.5 23.5t35.5 19.5q115 8 201 8q131 182 320.5 492.5t291.5 543.5h-213q-37 0 -16.5 25t45.5 27q94 8 221 8q43 0 43 -29q0 -53 -266 -512t-354 -581q-25 -33 -64 -33h-235q-23 0 -23 8z" />
<glyph unicode="^" horiz-adv-x="1198" d="M344 1075.5q0 18.5 41 50.5q8 6 100 64q207 127 252 127q39 -10 113 -102.5t83 -101.5t9 -19q0 -37 -20 -50q-4 -2 -15.5 -2t-32 15.5t-87 78t-89.5 78.5q-231 -109 -280 -133t-61.5 -24t-12.5 18.5z" />
<glyph unicode="_" horiz-adv-x="1292" d="M0 -78h1292v-57h-1292v57z" />
<glyph unicode="`" horiz-adv-x="700" d="M127 866q0 25 29 35q6 2 14 2q35 0 67.5 -22.5t68.5 -50t108.5 -81t75 -57.5t2.5 -6q0 -10 -19 -10q-45 0 -274 123q-8 6 -17.5 12t-21.5 16q-33 27 -33 39z" />
<glyph unicode="a" d="M23 129q0 41 18 78q41 86 132 167t189.5 138t155.5 71.5t111.5 14.5t93.5 -27.5t39 -58.5q0 -10 -2 -12t-10 2q-25 39 -102 39t-174 -50.5t-183 -125.5q-72 -68 -126 -153t-54 -124q0 -76 43 -76t131 70q145 123 198 180q188 203 203 203q25 0 59.5 -14.5t22.5 -34.5 q-104 -147 -123 -297q-2 -18 -2 -47t16 -47q17 -18 40 -18q21 -1 45 13q54 28 148.5 114.5t151.5 168.5q8 10 18.5 5t10.5 -9q0 -31 -97 -134.5t-149 -139.5q-96 -72 -178 -72q-78 0 -104 78q-6 25 -6 55q0 92 39 195q-8 -4 -76 -82t-157 -150t-161 -72q-33 0 -70.5 19.5 t-64 55.5t-26.5 77z" />
<glyph unicode="b" horiz-adv-x="798" d="M23 191.5q0 7.5 8 17.5q160 199 186 258q37 102 113 267t139 263q131 207 270 207q25 0 52 -6l40 -14q60 -35 60 -91q0 -54 -33 -116q-53 -109 -229 -273.5t-342 -279.5q-41 -74 -64 -193q76 113 197.5 217.5t234.5 104.5q37 0 88.5 -38t57.5 -75q2 -14 2 -26 q0 -92 -90 -197.5t-203 -179.5q-174 -119 -346 -119q-70 0 -111 19q-7 4 -7 6q0 10 89 10q125 0 324 147q193 135 233 324q6 29 -1 58.5t-36 29.5q-92 0 -241 -129q-63 -53 -130 -143t-67 -148q0 -8 3 -17t-7 -30q-13 -25 -30 -25q-20 0 -46 31q-12 31 -12 64q0 94 29 198 q-8 -8 -36 -50t-65 -83q-18 -20 -28 0q-2 4 -2 11.5zM309 506q140 92 281 231q244 246 244 365q0 49 -37 49q-29 0 -78 -37q-211 -162 -410 -608z" />
<glyph unicode="c" horiz-adv-x="645" d="M41 104.5q0 59.5 29 128.5q51 117 219 240t266 123q25 0 47 -6q57 -20 57 -66q0 -31 -22.5 -69.5t-33.5 -27t-7 23.5l10 41q0 41 -31 40q-84 0 -229 -131t-184 -264q-10 -35 -10 -62.5t12 -45.5q25 -37 76 -37t110 14q131 37 218 105.5t184 191.5q8 10 19 6t11 -11 t-6 -22q-98 -133 -205.5 -216t-248.5 -107q-41 -6 -76 -6q-100 0 -152.5 49t-52.5 108.5z" />
<glyph unicode="d" horiz-adv-x="768" d="M23 129q0 41 18 78q41 86 132 167t189.5 138t155.5 71.5t112.5 14.5t104.5 -37q281 651 537 651q86 0 117 -49q14 -25 14 -43q0 -51 -44 -130t-136.5 -173t-264.5 -232.5t-190 -154.5q-66 -152 -102.5 -293t-36.5 -210.5t24 -110.5q12 -27 37 -32t42.5 6t26.5 19.5 t22.5 15.5t19.5 3t-2 -23q-16 -20 -31 -34q-33 -23 -77 -23t-58 2q-98 16 -98 144q0 123 32 227q45 143 82 237q-328 -381 -465 -381q-33 0 -70.5 19.5t-64 55.5t-26.5 77zM111 88q0 -76 43 -76t131 70q227 186 405 377l29 69q-25 12 -87 12q-1 0 -1 1q-61 -1 -157 -51 q-97 -50 -183 -125q-72 -68 -126 -153t-54 -124zM829 549q133 86 278.5 229t211.5 266q27 49 27 83t-30 34t-79 -37q-225 -172 -408 -575z" />
<glyph unicode="e" horiz-adv-x="653" d="M43 117q0 49 27 116q51 117 219 240t266 123q111 0 111 -107q0 -55 -31 -90q-51 -76 -166 -132t-195 -62q-29 -2 -30 16q-2 8 5 10t11 2q47 4 121 46q137 74 201 151q27 36 27 70q0 35 -34 35q-27 0 -71 -23q-96 -45 -202.5 -156.5t-139.5 -218.5q-10 -33 -10 -64.5 t26.5 -60t81.5 -28.5q61 0 141 32q231 94 357 285q12 16 22 6q8 -4 8 -10t-6 -14q-61 -102 -155 -183q-181 -155 -353 -155h-2q-147 0 -206 88q-23 35 -23 84z" />
<glyph unicode="f" horiz-adv-x="585" d="M-164 -709q0 6 4 17q37 70 379 944q-63 -8 -94 -8t-48.5 13t-17.5 34.5t46.5 39t71 17.5t40.5 -16.5t23 -16.5h6l59 152q37 102 113 267t137 263q137 207 274 207l50 -6l41 -14q59 -35 59 -95.5t-33 -130.5q-55 -119 -225 -309t-328 -317q168 14 216 14t50 -12 q0 -8 -38.5 -19.5t-315.5 -52.5q-244 -618 -248 -708q-2 -45 -9 -64.5t-17.5 -45.5t-15.5 -39t-11 -29.5t-10 -23.5t-9 -16.5t-10.5 -13.5t-42 -24.5t-66.5 -20.5t-30 14zM330 326q143 106 305 302.5t254 358.5q35 59 35 112.5t-39 53.5q-78 0 -221 -201q-84 -119 -150 -235 q-131 -246 -168 -359z" />
<glyph unicode="g" horiz-adv-x="851" d="M-119 -664q0 83 107 207q108 125 454 355q147 301 205 477q-115 -139 -164 -193q-184 -205 -297 -205q-33 0 -70.5 19.5t-64 55.5t-26.5 77q0 109 151 244q90 82 188.5 139t156 71.5t110.5 14.5t94 -28.5t41 -57.5q0 -16 -16 -10q-23 39 -100 39t-174 -50.5t-175 -119 t-132 -155.5t-54 -128q0 -72 41 -72q57 0 176 95q176 137 338 333q13 19 40 19t70 -21q33 -16 27 -28q-27 -59 -97.5 -206t-105.5 -220q47 25 161 124t200 199q27 32 38 32q7 0 7 -15q0 -51 -246 -271q-141 -127 -201 -159q-174 -358 -233 -451q-153 -227 -303 -227 q-16 0 -41 6q-105 27 -105 110zM-55 -674q0 -29 18.5 -41t39 -12t59 30.5t66.5 60.5t48.5 55.5t46 65.5t39.5 62.5t40 70.5t35 65.5t34.5 71t31.5 65.5q-246 -184 -352 -292t-106 -202z" />
<glyph unicode="h" horiz-adv-x="933" d="M70 228.5q0 23.5 18 48t76.5 95t83.5 105.5q-18 10 -19.5 28.5t12 26t44.5 -5.5q20 29 37 64q243 524 462 608q37 14 64 14q90 0 119 -49q16 -25 16 -43q0 -139 -233 -350q-207 -182 -381 -313q-57 -129 -119 -318q74 90 186 209q227 236 318 236q45 0 47 -45q1 -7 1 -14 q0 -40 -20 -76q-24 -43 -45 -80q-96 -160 -96 -285q0 -41 16 -59t38 -18q21 -1 45 13q54 28 148.5 114.5t153.5 168.5q10 10 19.5 5t9.5 -10t-4 -11q-31 -55 -110.5 -140.5t-129.5 -121.5q-94 -72 -180 -72q-78 0 -104 78q-6 18 -6 43.5t4 54.5q10 86 108 268 q20 37 20.5 52.5t-16.5 15.5q-33 0 -127 -82q-63 -59 -187 -224t-140 -175q-74 -37 -91.5 -37t-19.5 5t2 13t33 90q96 272 131 361q-68 -86 -168 -195q-16 -16 -16 7.5zM410 549q133 86 278 229t211 266q27 49 27 83t-30 34t-79 -37q-225 -172 -407 -575z" />
<glyph unicode="i" horiz-adv-x="462" d="M23 191.5q0 7.5 8 17.5q100 125 157 211q-4 10 5 26q41 115 71 121h15q51 0 61 -32q4 -18 -5 -36t-13.5 -28t-6.5 -16q-10 -20 -20 -39q-117 -233 -123 -297q-2 -18 -2 -47t16 -47t38 -18q20 -1 44 13q54 28 149 114.5t154 168.5q8 10 18.5 5t10.5 -10t-4 -11 q-31 -55 -111 -142q-131 -141 -219 -174q-51 -18 -86 -18q-82 0 -108 78q-4 14 -4 35q0 72 65 217q-10 -23 -80 -103q-18 -20 -28 0q-2 4 -2 11.5zM268 717q0 8 88 76l35 26q33 29 41 29t8 -8l-16 -66q0 -18 -26.5 -59t-41.5 -41q-88 0 -88 43z" />
<glyph unicode="j" horiz-adv-x="440" d="M-532 -662.5q0 82.5 108.5 206.5t454.5 354q147 305 217 522q-16 -20 -67.5 -80.5t-66 -81t-26.5 -2.5q-4 14 6 29q39 47 104.5 136t80.5 105q18 16 42 16q31 0 72 -26q27 -18 21 -31q-119 -279 -221 -499q45 25 157.5 124t202.5 201q27 32 38 32q7 0 7 -15 q0 -51 -246 -271q-143 -127 -200 -159q-174 -358 -234 -451q-158 -227 -303 -227q-16 0 -41 6q-106 29 -106 111.5zM-467 -674q0 -29 18.5 -41t39 -12t59.5 30.5t66.5 60.5t48 55.5t46 65.5t40 62.5t40 70.5t34.5 65.5t35 71t32 65.5q-246 -184 -352.5 -292t-106.5 -202z M383 717q0 8 88 76l35 26q37 29 44 29t7 -8l-16 -66q0 -18 -28 -59t-42 -41q-88 0 -88 43z" />
<glyph unicode="k" horiz-adv-x="704" d="M61 -47q0 6 3.5 13t29 77t64.5 176.5t67 177.5q-47 -51 -110 -141q-10 -14 -27.5 -8t10.5 43q68 82 170 235q-31 16 -30.5 31.5t4.5 24.5q10 25 37 10q12 -4 16 -4q90 238 225 424q74 104 154 152t149 48q49 0 94.5 -23.5t45.5 -76.5q0 -102 -177 -297 q-94 -100 -210.5 -184t-206.5 -123q-80 -176 -142 -369l133 174q-2 18 -2 39q0 61 27 76q14 6 18 -25l9 -28q158 184 227 217q33 16 59.5 16t47 -14t20.5 -31q0 -29 -47 -51q-225 -109 -297 -184q49 -172 96 -270.5t148.5 -221.5t185.5 -123q59 0 59 44q0 8 -2 18 q-8 55 -33.5 95t-5.5 40q18 -2 39 -19q12 -14 28.5 -50t16.5 -60q-2 -57 -55 -90t-102 -33q-96 0 -188.5 95t-154 230.5t-85.5 276.5q-37 -51 -82 -123q-93 -141 -111 -153q-74 -37 -94.5 -37t-20.5 6zM393 578q190 88 346 266q51 59 106.5 151t55.5 129t-30.5 37t-77.5 -37 q-131 -100 -221.5 -228t-178.5 -318z" />
<glyph unicode="l" horiz-adv-x="481" d="M59 106v13q8 143 145.5 433t248.5 437l63 80q23 27 66 66q81 78 168 78l1 -1q87 0 117 -53q11 -19 11 -54t-31 -97q-211 -367 -666 -746q-25 -70 -26.5 -93.5t-1.5 -63t20 -72.5q19 -30 51 -30q28 0 66 22q61 33 155.5 119.5t145.5 158.5q4 6 12 6q18 0 10 -26 q-31 -55 -113.5 -141.5t-150 -136.5t-135.5 -50q-156 0 -156 151zM213 344q141 96 316.5 313t263.5 387q25 45 24 70q0 43 -35 43q-29 0 -71 -33q-164 -127 -318 -401q-123 -221 -180 -379z" />
<glyph unicode="m" horiz-adv-x="1196" d="M37 -47q0 6 6 18.5t125 356.5q-45 -70 -82 -107q-16 -18 -16 7.5t14 43.5q92 121 135 205q12 72 49 84q23 8 52.5 -0.5t29.5 -28.5q0 -14 -22.5 -62t-128.5 -331q74 90 186 209q227 238 313 238q18 0 36 -10.5t18 -46t-22.5 -79.5t-51.5 -107.5t-39 -80.5 q172 156 260 189.5t116.5 33.5t28.5 -20q0 -12 -30.5 -59.5t-67.5 -139.5t-41 -129t-4 -65.5t17 -46.5t40 -18q20 -1 44 13q53 28 148 114.5t153 168.5q8 10 19 5t11 -10t-4 -11q-31 -55 -110 -142q-131 -141 -220 -174q-55 -19 -92 -19q-28 0 -47 11q-43 25 -53 55.5 t-10 61.5q0 96 37.5 192.5t60.5 130.5q-78 -33 -133 -81q-84 -74 -135 -129l-41 -46q-18 -45 -64 -51q-6 -1 -13 -1q-34 0 -32 32q4 39 76 174t72 150.5t-17 15.5q-37 0 -133 -84q-63 -59 -187 -224t-141 -175q-74 -37 -92 -37t-18 6z" />
<glyph unicode="n" horiz-adv-x="837" d="M-14 -47q0 6 4 17.5t40 111.5t78 220t51 144.5t12 42t7 29.5t15.5 27.5t30 16.5t47 -4t28.5 -26q0 -14 -22.5 -62t-129.5 -331q74 90 186.5 208t190.5 179q78 56 127 56q47 0 47 -50.5t-47 -138.5t-69 -143q-39 -94 -39 -150.5t16 -74.5q16 -17 39 -17q20 0 45 14 q53 30 148.5 114.5t152.5 166.5q8 10 19.5 5t11.5 -10t-4 -11q-31 -55 -111 -141.5t-153.5 -138.5t-145.5 -52q-70 2 -98.5 31.5t-28.5 74.5t8.5 87t30.5 98q37 88 64.5 137t27.5 64.5t-16 15.5q-33 0 -125 -80q-63 -59 -187 -224t-141 -175q-74 -37 -92 -37t-18 6z" />
<glyph unicode="o" horiz-adv-x="718" d="M70 133q0 121 82 246q47 74 110 129q100 88 191 88q23 0 43 -6q61 -20 61 -78q0 -47 -25 -47q-10 4 -10 31q0 37 -41 36q-72 0 -184.5 -131t-134.5 -264q-4 -23 -4 -50.5t18.5 -63t68.5 -35.5t109.5 45t106.5 114l-6 13q-8 33 8 53t43 12q37 76 37 117t-9.5 64.5t8 40 t44.5 12.5q41 -10 41 -92t-97 -215q2 -56 58 -56t168 119q53 61 66.5 79.5t23.5 13.5t10 -9q0 -20 -74 -106q-117 -143 -207 -144q-59 0 -83 51q-41 -43 -80 -80q-79 -67 -176 -67h-3q-55 0 -92 27q-72 43 -71 153z" />
<glyph unicode="p" horiz-adv-x="757" d="M-289 -705q0 8 6 23q94 193 237.5 566.5t158 414.5t41.5 119q45 131 49 196q0 25 65.5 25t65.5 -47q0 -35 -40 -97.5t-118 -248.5q119 180 193 235q98 80 190 80q37 0 74 -12q80 -29 88 -92q2 -17 2 -31q0 -90 -74 -183t-174 -163q-92 -59 -187 -92t-143.5 -33t-78.5 10 q-45 -104 -125 -350q-8 -27 -9.5 -67t-25 -108.5t-45.5 -109.5q-10 -25 -59.5 -40t-70 -15t-20.5 20zM84 -2q125 0 274.5 108.5t223.5 235.5q41 64 41 113q0 71 -54 71h-2q-33 0 -106.5 -38.5t-147 -116.5t-113.5 -146.5t-75 -141.5t-41 -85z" />
<glyph unicode="q" d="M23 131q0 113 137 242q86 82 180 140t140 71.5t127 13.5t128 -37l53 121q27 31 82 31q68 0 68 -30t-70 -93q-88 -70 -243 -551q20 -37 50 -37t74 23.5t139 109.5t154 168q8 10 18.5 5t10.5 -10t-4 -11q-31 -55 -110.5 -141.5t-155.5 -139.5q-61 -51 -144 -51h-12 q25 -109 37 -246t12 -183v-63q-14 -137 -70.5 -197.5t-115.5 -60.5q-82 0 -139 84q-33 47 -33 142q0 102 84 331q25 66 42 115t101 261t86 220q-328 -381 -465 -381q-33 0 -70.5 19.5t-64 56.5t-26.5 78zM111 88q0 -76 43 -76t131 70q227 186 405 377l29 69q-25 12 -87 12 q0 1 -1 1q-61 0 -157 -51q-97 -50 -183 -125q-72 -68 -126 -153t-54 -124zM428 -599q0 -28 2 -52q6 -88 66 -88q149 0 149 291q0 156 -39 385q0 16 -6 16t-12 -18.5t-40 -101.5t-50 -128q-55 -145 -62.5 -210.5t-7.5 -93.5z" />
<glyph unicode="r" horiz-adv-x="645" d="M57 229.5q0 8.5 13 24.5q111 135 190 289q-25 4 -37 17t-2 45t62.5 85t91.5 71.5t49 22.5t22 4q9 0 9 -10q0 -17 -25 -63l-80 -127q92 -6 158 -6l72 2q35 0 51 -9.5t8 -31.5q-14 -39 -72 -105q-123 -143 -184 -305q-14 -39 -14 -67q0 -59 43 -60q14 0 54 22.5t134 107.5 t152 167q8 10 19 5t11 -10t-4 -11q-31 -55 -110.5 -141.5t-155.5 -139.5q-74 -57 -160 -57q-104 0 -104 126t180 310q14 14 21 23l14 20q29 39 26 49l-6 19q-8 25 -67.5 36t-96.5 11q-184 -260 -212.5 -297t-39 -31t-10.5 14.5z" />
<glyph unicode="s" horiz-adv-x="606" d="M23 -70.5q0 17.5 32 56.5q31 31 99 59q6 2 10 -2t2 -10t-21.5 -14t-42.5 -39q-27 -31 -11.5 -49.5t35 -18.5t40.5 6q88 27 171 105.5t83 160.5q0 45 -101 99q-47 25 -53 28q-55 37 -69 74q-29 -49 -93 -141q-14 -16 -26 -7t-2 25q84 115 110 193q14 113 164 203t273 90 q78 0 109.5 -28t31.5 -54.5t-15.5 -61.5t-62.5 -65q-12 -8 -20 4q-4 12 17.5 33.5t27.5 58.5t-33 45h-12q-80 0 -200 -59.5t-187 -153.5q-27 -35 -27 -71t49 -64q20 -12 69.5 -39t70 -39t49 -39t30.5 -49q1 -8 1 -16q0 -55 -58 -119q-96 -106 -287 -150q-43 -10 -87 -10 t-60 33q-6 8 -6 25.5z" />
<glyph unicode="t" horiz-adv-x="462" d="M23 191.5q0 7.5 8 17.5q100 125 157 211q0 2 45 86q-20 -4 -41.5 -4t-31.5 13t-2 32q14 33 108 37q2 4 8 4l103 190q8 16 18.5 33.5t15.5 27t11 19.5t10 14.5t8 8.5q8 12 48 12t55 -23q6 -8 6 -27.5t-14.5 -43t-31 -33.5t-22.5 -23l-98 -172l27 2q158 14 191.5 14.5 t33.5 -9.5q0 -12 -48 -25.5t-235 -34.5q-10 -18 -24 -43q-31 -49 -33 -59q-117 -233 -123 -297q-2 -18 -2 -47t16 -47t38 -18q20 -1 44 13q54 28 149 114.5t154 168.5q8 10 21 4q6 -3 6 -10q0 -32 -113 -152q-131 -141 -219 -174q-51 -18 -86 -18q-82 0 -108 78q-4 14 -4 35 q0 72 65 217q-10 -23 -80 -103q-18 -20 -28 0q-2 4 -2 11.5z" />
<glyph unicode="u" horiz-adv-x="911" d="M68 131q0 121 82.5 249t105.5 136q31 8 58.5 8t56 -11t-8.5 -38q-141 -129 -200 -287q-23 -61 -23 -103t21.5 -54.5t42.5 -12.5q49 0 134 69t234 286q20 31 71.5 120t62.5 105q33 0 76.5 -15.5t29.5 -39.5q-98 -164 -138 -242t-55 -182q-2 -18 -2 -47t17 -47 q16 -17 39 -17q20 0 46 14q54 30 148.5 114.5t151.5 166.5q8 10 19.5 5t11.5 -10t-5 -11q-30 -56 -110 -142t-143 -133q-82 -59 -179 -59q-18 0 -47.5 17.5t-40 50t-10.5 63.5q0 106 41 211q-6 -4 -56 -87t-123 -157t-147 -74q-35 0 -79 19q-82 37 -82 135z" />
<glyph unicode="v" horiz-adv-x="645" d="M72 248q0 6 4 14q85 117 112 195q0 98 -57 98q-12 0 -25.5 -3t-13.5 5t12 21q12 10 84 16q86 0 107.5 -24.5t21.5 -49t-37.5 -122t-39.5 -101.5q-56 -170 -56 -223v-8q184 248 242 309q121 133 172 182q119 111 209 150q27 10 47 10q68 0 92 -41q8 -10 8 -19.5t-6 -21.5 t-22.5 1t-73.5 13q-94 0 -315 -221q-133 -137 -245 -286.5t-120 -213.5q0 -16 -30.5 -16t-46 25.5t-15.5 43t2 31t41 150.5t49 182q-25 -41 -68 -100q-14 -16 -23 -9t-9 13z" />
<glyph unicode="w" horiz-adv-x="1126" d="M68 117q0 68 29.5 146.5t59 124.5t78 110.5t62.5 70.5q31 8 58.5 8.5t48 -8t21.5 -20.5t-28.5 -37t-108.5 -128t-108.5 -183t-29.5 -131.5t44 -51.5t123 64q129 106 291 395q8 14 29.5 14.5t59.5 -11t38 -29.5q0 -6 -4 -13q-86 -139 -108 -315q-2 -13 -2 -25 q0 -42 22 -71q12 -17 36 -17q28 0 73 25q127 63 232.5 198.5t129.5 243.5q8 23 8 49q0 115 -65 140q-18 8 -41 5t-27 2t-2 11q4 18 84 18q133 0 133 -137t-155 -329q-98 -117 -232 -216q-74 -51 -153 -51q-104 0 -129 78q-15 38 -15 121q0 77 21 127q-55 -111 -121 -186.5 t-112 -103.5t-93 -28q-82 0 -114.5 44.5t-32.5 95.5z" />
<glyph unicode="x" horiz-adv-x="839" d="M-61 -395q0 111 108.5 267.5t217 271t108.5 120.5q0 49 -29 99.5t-47 57.5t-39 -5q-33 -20 -66.5 -64.5t-39 -50.5t-13.5 -16.5t-18 -21.5t-21.5 -10t-11.5 11t8 21.5t48 64.5t68 89t65.5 69t66.5 33t53.5 -20.5t32.5 -41t23.5 -73t21.5 -70.5q154 152 307 248q16 6 31 6 l31 -6q30 -14 30 -43q0 -25 -47 -25q-106 -41 -194 -117l-148 -114q0 -59 76 -197q35 -68 89.5 -68t127.5 76q35 37 168 207q10 12 19.5 6t9.5 -12t-4 -14q-94 -143 -189 -234q-96 -88 -178 -88q-16 0 -33 4q-102 23 -174 238q-418 -424 -426 -598q0 -25 -14 -25l-10 4 q-8 8 -8 21z" />
<glyph unicode="y" horiz-adv-x="851" d="M-119 -664q0 83 107 207q108 125 454 355q193 393 244 551q-25 -29 -96.5 -124.5t-126.5 -162t-133 -126t-143.5 -59.5t-101.5 30t-40 62.5t-4 55.5q0 76 41 151q61 125 166 216q38 37 68 37v-1q30 0 55 -18q27 -29 16 -49q-78 -45 -178 -174q-53 -70 -74 -176 q-2 -14 -2 -36t17.5 -35t35.5 -13q63 0 133 67.5t133.5 142t144.5 179t106.5 137.5t52.5 33q33 0 67.5 -18.5t29.5 -29t-104.5 -232.5t-144.5 -318q49 27 167 126t200 201q20 25 26 4q2 -4 2 -13t-12 -25q-63 -84 -202.5 -211t-221.5 -172q-174 -358 -233 -451 q-153 -227 -303 -227q-16 0 -41 6q-105 27 -105 110zM-53 -654.5q0 -76.5 53 -76.5q41 0 94 42t102.5 111.5t75 119.5t70.5 147.5t61 130.5q-246 -184 -351 -291t-105 -183.5z" />
<glyph unicode="z" horiz-adv-x="864" d="M18 -12q0 24 25 55q39 53 115 53q37 0 80 -14q57 47 63 55q102 88 317 297q-145 45 -219.5 45t-142.5 -62.5t-123 -140.5q-33 -39 -45 -28.5t2 33.5l137 188q39 55 97 86q18 10 34.5 10t35 -1t31.5 -2t56 -12t51 -13l158 -37q33 31 71 45t58.5 14t30.5 -22 q2 -49 -56.5 -84t-84 -35t-35.5 2q-178 -145 -286.5 -241.5t-121.5 -106.5l62 -31q141 -82 213 -82q47 0 104 33t163.5 132t164.5 179q10 14 23.5 9t13.5 -9q0 -29 -126 -158t-188 -174q-101 -76 -197 -76l-1 1q-96 0 -224 79q-47 29 -79 39q-91 -69 -139 -69h-1 q-12 0 -22 4q-15 14 -15 39z" />
<glyph unicode="{" horiz-adv-x="847" d="M92 55q0 92 60 187q25 39 71.5 105.5t46.5 111.5q0 66 -135 88q-18 2 -17 21.5t19 19.5q184 0 232 63q25 33 28.5 67t6 84t6.5 75q12 78 75.5 147.5t169.5 87.5q45 8 166 8q20 0 20.5 -19.5t-20.5 -19.5q-100 0 -144 -10t-71.5 -34.5t-51.5 -59.5t-38 -69t-21.5 -56.5 t-19.5 -65.5q-43 -147 -88 -179t-143 -48q90 -47 90 -133q0 -55 -37 -100q-2 -4 -26.5 -40t-32 -47.5t-24.5 -43t-24 -50.5q-16 -49 -9 -112.5t77 -95.5q51 -25 82 -25t47 4t16 -12q-4 -18 -22 -23q-31 -2 -57.5 -2h-47.5q-59 2 -116 43q-68 47 -68 133z" />
<glyph unicode="|" horiz-adv-x="526" d="M264 -125v1296h68v-1296h-68z" />
<glyph unicode="}" horiz-adv-x="954" d="M63 -111q0 6 9.5 18.5t24 8.5t46 -4t115.5 28.5t160 106.5q43 47 69.5 104.5t31.5 84t16 90.5q8 63 70.5 127.5t176.5 105.5q-59 12 -81.5 24.5t-22.5 46.5t20.5 72.5t55.5 100.5q78 139 73 201q-4 33 -12 43t-14 16t-21.5 9t-23.5 5t-29.5 3t-34.5 1h-45t-3.5 18.5 t34.5 20.5q123 0 160 -8q94 -18 94 -100q0 -68 -47 -135q-18 -25 -58.5 -75t-65 -84t-26.5 -65.5t29 -46.5q45 -18 147 -18q23 0 6.5 -19.5t-36.5 -21.5q-129 -18 -185.5 -65.5t-70.5 -143.5q-27 -193 -128.5 -299t-230.5 -141q-86 -23 -144.5 -23t-58.5 14z" />
<glyph unicode="~" horiz-adv-x="837" d="M274 699q0 3 21.5 33t45.5 58.5t59.5 47t62.5 18.5l37 -6q16 -6 75 -35q92 -47 130 -47q59 0 83 68q8 12 21.5 6t13.5 -11q0 -47 -82 -106q-35 -25 -61.5 -25t-45 6.5t-57 24t-57.5 23.5q-82 29 -112 12q-68 -16 -103 -72q-4 -6 -11 -6t-13.5 4t-6.5 7z" />
<glyph horiz-adv-x="3072" />
<glyph unicode="&#xa1;" horiz-adv-x="585" d="M-31 -276.5q0 40.5 49 122.5q6 12 22.5 26.5t22.5 29.5q223 428 285 616q8 18 42 23.5t32 -21.5l-4 -14q-123 -344 -228.5 -590t-118 -262t-25.5 -16t-45 22.5t-32 63zM410 739v23q0 10 21.5 43t31.5 33q69 0 69 -35q0 -14 -47 -52t-54 -39t-13 -1t-7 7t-1 21z" />
<glyph unicode="&#xa2;" horiz-adv-x="944" d="M123 383q0 123 110.5 265.5t264 238.5t278.5 106q57 104 84 105q35 0 29 -37q0 -6 -6 -12l-39 -58l24 -4q78 -29 78 -90q0 -16 -6 -37l-14 -29q-12 -27 -28.5 -49t-30 -3.5t2 50t15.5 58.5q0 39 -47 39l-39 -4q-240 -373 -416 -742q18 -2 60 -2t108 21q188 51 321 166 q41 33 41 9t-30 -50q-176 -154 -387 -187q-49 -10 -84 -10t-54 2q-20 -49 -61 -139q-16 -35 -64 -39q-33 0 -30 22q4 29 78 174q-158 53 -158 236zM215 317q0 -88 94 -118q178 332 408 702q-203 -68 -357 -262q-88 -113 -133 -252q-12 -39 -12 -70z" />
<glyph unicode="&#xa3;" horiz-adv-x="1124" d="M33 -16q2 55 41 107t94 63q88 227 127 323q-139 -18 -161.5 -18t-41 14t-18.5 35.5t46 40t70.5 18.5t41 -17.5t21.5 -17.5t66 7q152 354 310 534q72 78 166 111q47 14 93 14t93 -16q125 -51 123 -168q-8 -70 -41 -117q-12 -16 -25.5 -17t-16.5 11t7 35q20 33 19.5 99.5 t-41.5 92t-70 25.5q-78 0 -158 -53q-141 -98 -364 -541q125 14 195.5 14t70.5 -8q0 -29 -293 -68q-115 -233 -160 -329q14 -4 39 -11.5t35 -9.5q203 -70 410 -98q47 -6 90 -6q152 0 247 74.5t183 195.5q8 10 19.5 5t11.5 -10t-5 -11q-31 -55 -110.5 -141.5t-158.5 -142.5 t-204 -56q-57 0 -113.5 10t-244.5 60.5t-219 62.5l-49 -45q-27 -37 -40.5 -43t-15.5 -4q-12 -8 -18 -8q-25 -14 -38 -14t-13 18z" />
<glyph unicode="&#xa4;" horiz-adv-x="3072" />
<glyph unicode="&#xa5;" horiz-adv-x="1042" d="M117 -82q0 31 45 51q10 4 20 4l709 2q61 0 61 -26q0 -6 -12 -17.5t-56 -15.5t-371 -10t-340 -7t-17 -1q-39 0 -39 20zM309 96q0 47 162 142q240 141 387 282q-61 109 -151 195q-33 31 -78 70.5t-64.5 58t-19.5 34t10 26.5t29 11q27 0 71.5 -39.5t156.5 -124.5t140.5 -114 t34.5 -36t10 -15t6.5 -11.5t2.5 -8.5t-2.5 -10t-9.5 -13t-9 -10.5t-14.5 -12.5t-45 -42t-124.5 -99.5t-154 -108.5q-158 -104 -295 -182q-31 -20 -41 0q-2 4 -2 8z" />
<glyph unicode="&#xa7;" horiz-adv-x="1089" d="M-51 -278.5q0 69.5 33 128.5q10 20 19 10t0 -35.5t-9 -61t43 -72.5q47 -39 147 -39q199 0 321 40t205 109.5t83 141.5q0 104 -213 166q-29 8 -99.5 23t-116 28.5t-96.5 40.5q-102 49 -101 182t236 248q-66 53 -65 139v14q0 84 78 158q129 125 336 174q63 17 165 17 q270 0 271 -134q0 -14 -8 -51q-12 -25 -25.5 -15.5t-13.5 34.5q0 55 -86 73q-59 12 -101 13q-98 0 -209.5 -20.5t-213 -76t-101.5 -137.5q0 -51 39 -82q59 -43 205 -80l82 -20t91 -29.5t101 -50.5q109 -59 109 -172q0 -78 -63.5 -162t-143.5 -133q37 -53 37 -113 q0 -102 -107 -194q-162 -145 -397 -182q-117 -18 -206 -18.5t-157.5 34.5t-68.5 104.5zM256 427q0 -42 15.5 -65.5t34 -39t55 -29.5t61.5 -23q78 -23 131 -34q192 -47 266 -117q147 111 148 203q0 51 -47.5 104t-171.5 90q-25 6 -97 21q-147 31 -217 71q-76 -33 -127 -86 t-51 -95z" />
<glyph unicode="&#xa8;" horiz-adv-x="802" d="M369 721q0 4 57 49q68 55 73 55t5 -4l-12 -55q0 -16 -20.5 -48t-33.5 -32q-70 0 -69 35zM694 721q0 4 58 49q68 55 72.5 55t4.5 -4l-12 -55q0 -16 -21.5 -48t-33.5 -32q-68 0 -68 35z" />
<glyph unicode="&#xa9;" horiz-adv-x="1507" d="M27 438q0 336 280 570q236 197 534 196.5t482 -196.5q156 -164 156 -390q0 -41 -6 -86q-39 -278 -275.5 -473.5t-534.5 -195.5t-483 194q-154 162 -153 381zM115 485q0 -174 108 -319q174 -233 490 -234q211 0 395 127q221 152 272 398q13 64 13 125q0 174 -109 319 q-174 231 -491 232q-211 0 -396 -125q-219 -152 -270 -398q-12 -63 -12 -125zM297 346.5q0 106.5 65 233.5q90 170 248 294.5t326 124.5t168 -131q0 -57 -37 -95t-81 -52t-40 12q2 20 39 52t37 74t-33 62.5t-54.5 20.5h-23.5q-106 0 -236 -116.5t-206 -272.5 q-63 -123 -63 -213q0 -106 55 -160.5t145 -54.5q113 0 252 74.5t232 193.5q10 14 24 18.5t23.5 -16t-9.5 -39.5q-94 -123 -239.5 -203.5t-294 -80.5t-234.5 98q-63 70 -63 176.5z" />
<glyph unicode="&#xaa;" horiz-adv-x="1331" d="M299 1106q0 113 152 246q90 80 188 137q147 86 256 86q66 0 109 -31q35 -20 34 -53q0 -12 -2 -13t-10 3q-27 39 -102.5 39t-174 -51.5t-176 -123t-132 -156.5t-54.5 -124q0 -74 43 -74t147.5 84t182.5 164q188 203 203 203q27 0 60.5 -13.5t20.5 -35.5 q-104 -150 -122 -297q-2 -18 -2 -46t17 -46.5t36.5 -18.5t58.5 20.5t134.5 106.5t154.5 168q8 12 18.5 7t10.5 -9q0 -31 -97.5 -134.5t-148.5 -139.5q-96 -72 -176 -72t-107 78q-6 25 -6 55q0 90 39 192q-8 -4 -75.5 -80.5t-157 -148.5t-165 -72t-126.5 68q-31 41 -31 82z " />
<glyph unicode="&#xab;" horiz-adv-x="776" d="M172 401q0 13 3 16t37 33.5t87 83t93 89t73 64.5t39 28t6 -15.5t-27 -46.5q-88 -106 -209 -219q106 -213 120 -245.5t-7 -43.5q-2 -2 -6 -2q-10 0 -25 25q-61 96 -161 197q-23 23 -23 36zM438.5 397.5q-0.5 8.5 3.5 13.5t6.5 8t31 30.5t115.5 111.5t128 119t48 34.5 t7 -14.5q0 -39 -237 -266q88 -170 110.5 -222t3.5 -67q-2 -2 -6 -2q-12 0 -26 25q-63 100 -174 211q-10 10 -10.5 18.5z" />
<glyph unicode="&#xac;" horiz-adv-x="1525" d="M74 457q0 25 59 28q190 8 613 40t649 38q70 0 69 -33q0 -18 -9 -55t-13 -60.5t-34 -150.5t-38 -194q-10 -17 -22 -17q-25 6 -27 27q8 285 45 430q-831 -61 -1249 -84q-31 -2 -41 23q-2 4 -2 8z" />
<glyph unicode="&#xad;" horiz-adv-x="772" d="M293 342q0 29 45 49q12 6 22 6l304 2q113 0 112 -24q0 -41 -436 -51h-10q-37 0 -37 18z" />
<glyph unicode="&#xae;" horiz-adv-x="1507" d="M27 438q-1 337 280 570q236 197 534 196.5t482 -196.5q156 -164 156 -390q0 -41 -6 -86q-39 -279 -275.5 -474t-534.5 -195t-483 194q-154 162 -153 381zM115 485q0 -174 108 -319q174 -233 490 -234q211 0 395 127q221 152 272 398q12 63 13 125q0 174 -109 319 q-174 231 -491 232q-211 0 -396 -125q-219 -152 -270 -398q-12 -64 -12 -125zM379 137q-4 59 122 380t165 370q12 12 52 -3.5t32 -33.5q-29 -55 -92.5 -172t-94.5 -178q217 4 381 114q86 59 127 131q25 45 25 78q0 109 -133 140q-23 10 -54.5 10t-86 -8.5t-100.5 -20.5 t-106.5 -33.5t-64.5 -21.5q-14 -4 -25.5 15.5t-11.5 29.5q0 25 47 37q156 41 248 41q209 0 301 -82q47 -45 47 -107q0 -78 -47 -143.5t-115 -101.5q-133 -74 -274 -103q49 -96 137 -184q39 -37 49.5 -47.5t60.5 -54.5t59 -53t1 -17q-10 -12 -31 -13q-53 0 -185 137.5 t-185 217.5q-53 -8 -64 -4l-16 8q-82 -182 -107 -332q-12 -8 -32.5 -10t-28.5 14z" />
<glyph unicode="&#xaf;" horiz-adv-x="772" d="M270 739q0 31 45 49l21 7l303 2q109 0 113 -25q0 -20 -53.5 -27.5t-193.5 -15.5t-187.5 -8t-47.5 18z" />
<glyph unicode="&#xb0;" horiz-adv-x="724" d="M248 1194q0 49 37 95t75.5 53.5t65.5 7.5q70 0 130 -42t60 -145q0 -124 -98 -149q-27 -6 -72 -6t-110 41q-88 55 -88 145zM336 1188q0 -51 45 -81t90 -30q64 0 72 45q4 20 4 52t-36 66t-105 34q-33 0 -51.5 -30t-18.5 -56z" />
<glyph unicode="&#xb1;" horiz-adv-x="1259" d="M117 -82q0 31 45 51q10 4 20 4l709 2q41 0 55.5 -13t-2 -27.5t-60.5 -18.5t-371 -10t-340 -7t-17 -1q-39 0 -39 20zM274 446q0 29 41 50q14 6 25 6h334q125 270 141 303t37.5 33t21.5 -23q0 -16 -12 -43l-114 -270h301q61 0 61 -27q0 -6 -11.5 -16t-54.5 -14.5t-327 -8.5 l-152 -354q-18 -41 -67 -41q-37 0 -9 55q82 174 154 338q-307 -8 -321 -8q-47 -2 -48 20z" />
<glyph unicode="&#xb4;" horiz-adv-x="370" d="M315 596q0 6 5.5 12t28 22.5t52 36t43 30t48.5 36.5q78 57 100 90q12 4 18 4l39 -12q25 -14 25 -37q0 -27 -15 -33q-33 -27 -167 -90t-155.5 -64t-21.5 5z" />
<glyph unicode="&#xb5;" horiz-adv-x="911" d="M-289 -709q0 6 4 17q72 141 201 489q135 365 176 457q43 111 57.5 136.5t30.5 55.5q33 66 47 70q31 8 58.5 8t55.5 -10t-7 -44t-86 -111.5t-80 -154.5t-29 -119t21.5 -54.5t42.5 -12.5q49 0 134 69t234 286q20 31 71.5 120t62.5 105q33 0 76.5 -15.5t29.5 -39.5 q-98 -164 -138 -242t-55 -182q-2 -18 -2 -47t17 -47q31 -33 85 -3.5t148.5 114.5t151.5 167q8 10 19.5 5t11.5 -10t-5 -11q-31 -55 -110 -142q-131 -141 -219 -174q-96 -33 -138 -8t-52.5 57.5t-10.5 63.5q0 106 41 211q-6 -4 -56 -87t-123 -157t-147 -74q-31 0 -72.5 16.5 t-62.5 43.5q-18 -51 -62 -169t-72 -193.5t-29 -121t-9 -64.5t-17 -46t-14.5 -39t-11.5 -28.5t-10 -23.5t-9 -16.5t-10.5 -13.5t-42 -24.5t-66.5 -20.5t-30 14z" />
<glyph unicode="&#xb6;" horiz-adv-x="1083" d="M104 769q0 85 60 171q131 186 512 225q63 6 154.5 6t195.5 -28q27 0 47.5 -10.5t20.5 -18.5t-6.5 -19.5t-58.5 -116t-67.5 -136t-63.5 -130t-67.5 -146.5t-58.5 -137t-59.5 -148.5t-46.5 -137.5q-47 -139 -74 -282q-9 -8 -21 -8q-31 0 -30 32q0 92 174 572q-33 -2 -73 -2 t-85 4q-145 -350 -190 -598q-8 -8 -17 -8q-31 0 -35 24q-8 86 177 590q-61 6 -136 29q-121 35 -186.5 111.5t-65.5 161.5zM182 725q0 -14 2 -29q25 -133 240 -176q57 -8 86 -10q170 469 250 610q-272 -25 -451 -178q-127 -111 -127 -217zM582 508q82 4 157 18 q166 453 242 586q-102 10 -119 10q10 -10 2 -20q-213 -434 -282 -594z" />
<glyph unicode="&#xb7;" horiz-adv-x="423" d="M240 332q0 8 32.5 36.5t42.5 37.5q25 18 36 18t11 -16v-31q0 -16 -20 -48t-33 -32q-70 0 -69 35z" />
<glyph unicode="&#xb8;" horiz-adv-x="956" d="M98 -466.5q0 11.5 13.5 6.5t23.5 -21q41 -61 139 -62q139 0 242 105q55 55 55 110.5t-30.5 79t-65.5 23.5l-119 -17q-18 0 -19 8.5t16.5 30t53 85t46.5 93.5q8 18 26 19q43 0 45 -12q0 -6 -56 -84t-60 -84q43 8 93 8t95 -27q70 -41 70 -115.5t-72 -140.5 q-129 -117 -297 -117l-57 5q-94 12 -134 77q-8 18 -8 29.5z" />
<glyph unicode="&#xba;" horiz-adv-x="1181" d="M403 1147q0 49 17 113q39 145 178 270q100 82 188 82q23 0 43 -6q59 -23 60 -82q0 -41 -23 -41q-12 2 -14 10q6 20 -3 38.5t-36 18.5q-72 0 -184 -133q-140 -162 -140 -303q0 -111 93 -110q47 0 105 45t106 114q-4 8 -5 13q-8 33 7.5 54t44.5 13q39 76 39 116t-7.5 56.5 t-7.5 26.5q0 23 25 31q12 4 29 4q25 0 34 -29t9 -53q0 -92 -99 -228q2 -27 16.5 -41t40 -14t63.5 24.5t55.5 42t49.5 54.5q37 37 72 86q6 8 15 8q14 0 14 -14q0 -20 -72 -105q-123 -143 -207 -143q-59 0 -86 51q-39 -43 -92 -88q-68 -59 -164 -59q-55 0 -94 28 q-70 43 -70 150z" />
<glyph unicode="&#xbb;" horiz-adv-x="776" d="M174 176q0 14 17.5 34.5t39 46.5t35.5 42q45 51 144 145q-100 188 -117 232.5t2 52.5q4 2 6 2q12 0 27 -24q55 -90 161 -197q25 -33 23 -40t-33 -40q-45 -41 -95 -89t-92 -87t-74 -65.5t-38 -26.5t-6 14zM440 176q0 39 238 268q-98 180 -116.5 228.5t-0.5 56.5q4 2 6 2 q12 0 27 -24q55 -90 172 -207q6 -6 9 -11.5t5 -7.5t2 -4l-4 -10q0 -8 -7 -13t-36.5 -34t-83.5 -80q-186 -178 -202 -178q-8 0 -9 14z" />
<glyph unicode="&#xbf;" horiz-adv-x="837" d="M45 -117q0 166 209 338q53 45 120.5 92t98.5 72t64.5 64.5t40.5 76.5q4 18 25.5 18.5t18 -31.5t-39 -79t-66.5 -75.5t-96 -86.5q-131 -113 -186.5 -195.5t-55.5 -226.5q0 -74 40 -123t108 -49q115 0 249 132q18 18 70.5 88.5t71.5 72.5q14 0 14 -56t-16 -101 q-35 -78 -121 -90q-23 -2 -76 -30t-125 -42l-100 -8q-102 0 -166 49q-82 63 -82 190zM668 733v25q0 14 20.5 47t32.5 33q70 0 70 -35q0 -14 -41 -47t-52.5 -39t-17.5 -8q-12 -5 -12 24z" />
<glyph unicode="&#xc0;" horiz-adv-x="962" d="M23 25q0 20 10 37.5t20 9t10 -46.5q0 -70 54.5 -105t132.5 -35q168 0 330.5 109.5t443.5 429.5q-186 23 -279.5 30t-117.5 7q-260 0 -322 -170q-8 -23 -8 -42.5t8 -34.5t3 -24.5t-17 -8.5t-21 14q-23 39 -22.5 75.5t2.5 51.5q16 176 158 215q68 18 155 18q109 0 506 -78 q111 127 559 688q6 8 14 13q49 29 107 28q20 0 20 -20q0 -2 -2 -5t-4 -8.5t-4 -9.5q-197 -326 -305 -733l-6 -14q10 0 26.5 -1t29 -2t54 -1t89 19.5t59.5 41t24.5 11t2.5 -26.5q-23 -41 -80 -60q-49 -20 -97.5 -20h-62.5l-51 2q-43 -162 -43 -275.5t56 -113.5t165 82 q125 94 227 233q6 8 18.5 3t3.5 -30.5t-116 -140.5q-59 -63 -137 -125.5t-189 -62.5q-63 0 -91.5 57t-28.5 143.5t36 237.5q-154 14 -243 27q-287 -352 -473 -488q-162 -121 -336 -121q-111 0 -189.5 55.5t-78.5 164.5zM1139 461l215 -35q57 223 186 553l10 22 q-256 -350 -411 -540zM1548 1522q0 18 29 28q6 2 14 2q35 0 104 -51t208 -153q10 -4 10 -13.5t-19.5 -9.5t-110.5 42t-134 65q-100 53 -101 90z" />
<glyph unicode="&#xc1;" horiz-adv-x="1738" d="M23 25q0 20 10 37.5t20 9t10 -46.5q0 -70 54.5 -105t132.5 -35q168 0 330.5 109.5t443.5 429.5q-301 37 -397 37q-260 0 -322 -170q-8 -23 -8 -42.5t8 -34.5t3 -24.5t-17 -8.5t-21 14q-23 39 -22 75q0 127 46 187.5t107 77.5q74 20 172.5 20t495.5 -78q111 127 559 688 q6 8 14 13q49 29 107 28q20 0 20 -20q0 -2 -2 -5t-4 -8.5t-4 -9.5q-197 -326 -305 -733l-6 -14l51 -2q16 -2 58 -2t89.5 19.5t60.5 42t23.5 10t2.5 -26.5q-23 -41 -80 -60q-49 -20 -97.5 -20h-62.5l-55 2q-39 -178 -39 -283.5t57 -105.5q55 0 172 88t219 227q6 8 18.5 3 t7.5 -19.5t-34 -50.5q-86 -115 -211 -218q-90 -71 -201 -71q-63 0 -91.5 56t-28.5 143.5t36 238.5q-72 6 -243 29q-285 -352 -473 -490q-162 -121 -336 -121q-111 0 -189.5 55.5t-78.5 164.5zM1139 461l215 -35q57 223 186 553q2 4 5 11t5 11q-256 -350 -411 -540z M1741 1352q0 6 5 12t28 20q61 39 84.5 59.5t58.5 43.5q74 53 100 90q16 4 23.5 4t36.5 -10q23 -14 22 -39q0 -18 -12 -31q-33 -26 -167 -89.5t-156.5 -64.5t-22.5 5z" />
<glyph unicode="&#xc2;" horiz-adv-x="962" d="M23 25q0 20 10 37.5t20 9t10 -46.5q0 -70 54.5 -105t132.5 -35q168 0 330.5 109.5t443.5 429.5q-186 23 -279.5 30t-117.5 7q-260 0 -322 -170q-8 -23 -8 -42.5t8 -34.5t3 -24.5t-17 -8.5t-21 14q-23 39 -22.5 75.5t2.5 51.5q16 176 158 215q68 18 155 18q109 0 506 -78 q111 127 559 688q6 8 14 13q49 29 107 28q20 0 20 -20q0 -2 -2 -5t-4 -8.5t-4 -9.5q-197 -326 -305 -733l-6 -14q10 0 26.5 -1t29 -2t54 -1t89 19.5t59.5 41t24.5 11t2.5 -26.5q-23 -41 -80 -60q-49 -20 -97.5 -20h-62.5l-51 2q-43 -162 -43 -275.5t56 -113.5t165 82 q125 94 227 233q6 8 18.5 3t3.5 -30.5t-116 -140.5q-59 -63 -137 -125.5t-189 -62.5q-63 0 -91.5 57t-28.5 143.5t36 237.5q-154 14 -243 27q-287 -352 -473 -488q-162 -121 -336 -121q-111 0 -189.5 55.5t-78.5 164.5zM1139 461l215 -35q57 223 186 553l10 22 q-256 -350 -411 -540zM1577 1305q0 20 12.5 30.5t69.5 61.5q137 125 166 125q26 -11 79.5 -75.5t74 -96t20.5 -45t-9.5 -13.5t-21.5 11q-156 135 -168 147q-39 -23 -100.5 -73t-83.5 -66q-39 -20 -39 -6z" />
<glyph unicode="&#xc3;" horiz-adv-x="962" d="M23 25q0 20 10 37.5t20 9t10 -46.5q0 -70 54.5 -105t132.5 -35q168 0 330.5 109.5t443.5 429.5q-186 23 -279.5 30t-117.5 7q-260 0 -322 -170q-8 -23 -8 -42.5t8 -34.5t3 -24.5t-17 -8.5t-21 14q-23 39 -22.5 75.5t2.5 51.5q16 176 158 215q68 18 155 18q109 0 506 -78 q111 127 559 688q2 4 2 6h2q57 35 117 35q20 0 20 -20q0 -2 -2 -5t-4 -8.5t-4 -9.5q-197 -326 -305 -733l-6 -14q10 0 26.5 -1t29 -2t54 -1t89 19.5t59.5 41t24.5 11t2.5 -26.5q-23 -41 -80 -60q-49 -20 -97.5 -20h-62.5l-51 2q-43 -162 -43 -275.5t56 -113.5t165 82 q125 94 227 233q6 8 18.5 3t3.5 -30.5t-116 -140.5q-59 -63 -137 -125.5t-189 -62.5q-63 0 -91.5 57t-28.5 143.5t36 237.5q-154 14 -243 27q-287 -352 -473 -488q-162 -121 -336 -121q-111 0 -189.5 55.5t-78.5 164.5zM1139 461l215 -35q57 223 186 553l10 22 q-256 -350 -411 -540zM1493 1321q0 2 20.5 31.5t45 59.5t60.5 48.5t64 18.5l35 -6q16 -6 76 -37q86 -45 138.5 -45t74.5 67q8 12 21.5 6t13.5 -10q0 -47 -80 -106q-37 -25 -63.5 -25t-45 6t-58.5 23.5t-56 23.5q-90 27 -113 13q-66 -14 -102 -72q-4 -6 -11.5 -6t-13.5 4 t-6 6z" />
<glyph unicode="&#xc4;" horiz-adv-x="962" d="M23 25q0 20 10 37.5t20 9t10 -46.5q0 -70 54.5 -105t132.5 -35q168 0 330.5 109.5t443.5 429.5q-186 23 -279.5 30t-117.5 7q-260 0 -322 -170q-8 -23 -8 -42.5t8 -34.5t3 -24.5t-17 -8.5t-21 14q-23 39 -22.5 75.5t2.5 51.5q16 176 158 215q68 18 155 18q109 0 506 -78 q111 127 559 688q2 4 2 6h2q57 35 117 35q20 0 20 -20q0 -2 -2 -5t-4 -8.5t-4 -9.5q-197 -326 -305 -733l-6 -14q10 0 26.5 -1t29 -2t54 -1t89 19.5t59.5 41t24.5 11t2.5 -26.5q-23 -41 -80 -60q-49 -20 -97.5 -20h-62.5l-51 2q-43 -162 -43 -275.5t56 -113.5t165 82 q125 94 227 233q6 8 18.5 3t3.5 -30.5t-116 -140.5q-59 -63 -137 -125.5t-189 -62.5q-63 0 -91.5 57t-28.5 143.5t36 237.5q-154 14 -243 27q-287 -352 -473 -488q-162 -121 -336 -121q-111 0 -189.5 55.5t-78.5 164.5zM1139 461l215 -35q57 223 186 553l10 22 q-256 -350 -411 -540zM1534 1360q0 4 57.5 50t64.5 50t10 4t3 -2l-12 -55q0 -16 -21.5 -48t-33.5 -32q-68 0 -68 33zM1858 1360q0 4 62 53t67.5 49t5.5 -2l-13 -53q0 -16 -20.5 -48t-32.5 -32q-70 0 -69 33z" />
<glyph unicode="&#xc5;" horiz-adv-x="962" d="M23 25q0 20 10 37.5t20 9t10 -46.5q0 -70 54.5 -105t132.5 -35q168 0 330.5 109.5t443.5 429.5q-186 23 -279.5 30t-117.5 7q-260 0 -322 -170q-8 -23 -8 -42.5t8 -34.5t3 -24.5t-17 -8.5t-21 14q-23 39 -22.5 75.5t2.5 51.5q16 176 158 215q68 18 155 18q109 0 506 -78 q111 127 559 688q2 4 2 6h2q57 35 117 35q20 0 20 -20q0 -2 -2 -5t-4 -8.5t-4 -9.5q-197 -326 -305 -733l-6 -14q10 0 26.5 -1t29 -2t54 -1t89 19.5t59.5 41t24.5 11t2.5 -26.5q-23 -41 -80 -60q-49 -20 -97.5 -20h-62.5l-51 2q-43 -162 -43 -275.5t56 -113.5t165 82 q125 94 227 233q6 8 18.5 3t3.5 -30.5t-116 -140.5q-59 -63 -137 -125.5t-189 -62.5q-63 0 -91.5 57t-28.5 143.5t36 237.5q-154 14 -243 27q-287 -352 -473 -488q-162 -121 -336 -121q-111 0 -189.5 55.5t-78.5 164.5zM1139 461l215 -35q57 223 186 553l10 22 q-256 -350 -411 -540zM1628 1309q0 10 2 20q14 63 80 105q37 31 102 30q134 0 134 -86q0 -76 -91 -141q-45 -29 -85.5 -29t-75.5 15q-66 25 -66 86zM1683 1290q8 -53 76 -53q45 0 81 31.5t48 66.5q10 12 10 29q0 76 -71 76q-53 0 -100.5 -52.5t-43.5 -97.5z" />
<glyph unicode="&#xc6;" horiz-adv-x="1748" d="M0 -58.5q0 66.5 54.5 226.5t117.5 260h-39q-41 0 -42 29.5t42 40.5l23 4q25 0 61 6q102 156 315 369q104 104 219 175.5t201 71.5q29 0 72 -12t51 -37q98 27 279.5 27t294.5 -8q10 2 12 2q33 6 51.5 -10.5t-4.5 -43.5q-2 -2 -32.5 -24.5t-49.5 -40.5q-84 -80 -84 -141 q0 -25 11.5 -44.5t-2 -22.5t-27.5 13q-15 11 -15 60q0 137 88 213q-123 -4 -243.5 -22.5t-167.5 -45.5q-33 -18 -131.5 -190t-159.5 -297q172 -2 299 -2t141.5 -4.5t9 -19.5t-101.5 -21h-10l-23 -2q-199 -10 -340 -11q-39 -109 -39 -178t5 -106q10 -72 66 -117t155 -45 q178 0 367.5 82t299.5 211q14 16 23 -6q2 -6 2 -13.5t-6 -13.5q-106 -129 -305 -228.5t-441 -99.5q-98 0 -161 33q-117 59 -117 217q0 115 57 262q-139 0 -170 -2h-350q-74 -121 -133.5 -298t-67.5 -292q-8 -16 -10 -16q-10 0 -25 18q-20 27 -20 93.5zM289 502h100l412 -2 q23 49 80 148.5t90 178.5q37 92 37 165t-45 100q-334 -94 -674 -590z" />
<glyph unicode="&#xc7;" horiz-adv-x="983" d="M-6 -529.5q0 11.5 13 6.5t24 -22q41 -61 139 -61q137 0 240 104q55 55 55 110.5t-31 79t-67 23.5l-115 -16q-18 0 -19 6q0 12 32 56t73 130q-166 29 -246 148q-49 74 -49 162q0 236 162 483q223 340 540 471q123 49 236 49q139 0 199 -65q39 -45 39 -105 q0 -113 -119 -231.5t-263.5 -189t-250.5 -81.5q-43 -4 -41 23q2 37 51 41q164 14 301 99t211 227q35 55 35 114q0 115 -121 115q-104 0 -271 -98.5t-343.5 -300t-245.5 -422.5q-29 -88 -29 -163t43 -130q76 -98 248 -101h22q190 0 411.5 97.5t354.5 285.5q10 14 21.5 6 t11.5 -14t-4 -10q-152 -207 -373 -311.5t-428 -104.5h-16h-27q-14 -23 -52 -72t-44 -59q43 8 94 8t97 -26q70 -41 69.5 -117t-72.5 -139q-129 -117 -296 -117l-58 2q-94 14 -133 80q-8 18 -8 29.5z" />
<glyph unicode="&#xc8;" horiz-adv-x="1075" d="M49 150.5q0 107.5 52.5 182.5t123.5 116q182 102 514 118q-59 68 -109 176.5t-50 217.5q0 74 35.5 136t119.5 88.5t125 26.5t59.5 -5t32 -10t24.5 -10t23.5 -13.5t20.5 -14.5t20.5 -17.5t24.5 -21.5t31 -28q31 -37 59 -43q4 -4 18.5 -5.5t25.5 -11.5t34.5 -68.5 t23.5 -96.5t-9 -80t-29 -42q-33 0 -64 103q-16 61 -27 82q-57 121 -122 176q-59 55 -121 55q-27 0 -54 -10q-98 -41 -120 -160q-10 -49 -10.5 -106.5t24.5 -146.5t76 -156q10 -12 108 -21q51 -6 59.5 -35.5t-24.5 -46.5q-10 -14 -88 0q-20 2 -53 11.5t-43 11.5 q-111 -2 -250 -49t-256 -144.5t-117 -214.5q0 -88 72 -142t230.5 -54t354 49t307 106.5t220.5 161.5t109 180q0 12 -1.5 20.5t6 13.5t17.5 -5q27 -51 27 -107.5t-62 -132.5q-49 -59 -102 -102q-156 -125 -438 -188q-211 -47 -350.5 -47.5t-236.5 24.5t-169 98.5t-72 181z M795 1483q0 18 28 28q6 2 15 2q37 0 104 -49q121 -92 168 -125q49 -37 49 -43q0 -10 -18.5 -10t-111.5 42t-134 65q-100 55 -100 90z" />
<glyph unicode="&#xc9;" horiz-adv-x="1075" d="M49 150.5q0 107.5 52.5 182.5t123.5 116q182 102 514 118q-59 68 -109 176.5t-50 217.5q0 74 35.5 136t119.5 88.5t125 26.5t59.5 -5t32 -10t24.5 -10t23.5 -13.5t20.5 -14.5t20.5 -17.5t24.5 -21.5t31 -28q31 -37 59 -43q4 -4 18.5 -5.5t25.5 -11.5t34.5 -68.5 t23.5 -96.5t-9 -80t-29 -42q-33 0 -64 103q-16 61 -27 82q-57 121 -122 176q-59 55 -121 55q-27 0 -54 -10q-98 -41 -120 -160q-10 -49 -10.5 -106.5t24.5 -146.5t76 -156q10 -12 108 -21q51 -6 59.5 -35.5t-24.5 -46.5q-10 -14 -88 0q-20 2 -53 11.5t-43 11.5 q-111 -2 -250 -49t-256 -144.5t-117 -214.5q0 -88 72 -142t230.5 -54t354 49t307 106.5t220.5 161.5t109 180q0 12 -1.5 20.5t6 13.5t17.5 -5q27 -51 27 -107.5t-62 -132.5q-49 -59 -102 -102q-156 -125 -438 -188q-211 -47 -350.5 -47.5t-236.5 24.5t-169 98.5t-72 181z M920 1322q0 7 4 12t26 22q68 45 86.5 60.5t53.5 41.5q78 53 102 88q16 4 23.5 4t35.5 -10q25 -14 25 -37q0 -18 -14 -33q-33 -26 -166 -89.5t-154.5 -64.5t-21.5 6z" />
<glyph unicode="&#xca;" horiz-adv-x="1075" d="M49 150.5q0 107.5 52.5 182.5t123.5 116q182 102 514 118q-59 68 -109 176.5t-50 217.5q0 74 35.5 136t119.5 88.5t125 26.5t59.5 -5t32 -10t24.5 -10t23.5 -13.5t20.5 -14.5t20.5 -17.5t24.5 -21.5t31 -28q31 -37 59 -43q4 -4 18.5 -5.5t25.5 -11.5t34.5 -68.5 t23.5 -96.5t-9 -80t-29 -42q-33 0 -64 103q-16 61 -27 82q-57 121 -122 176q-59 55 -121 55q-27 0 -54 -10q-98 -41 -120 -160q-10 -49 -10.5 -106.5t24.5 -146.5t76 -156q10 -12 108 -21q51 -6 59.5 -35.5t-24.5 -46.5q-10 -14 -88 0q-20 2 -53 11.5t-43 11.5 q-111 -2 -250 -49t-256 -144.5t-117 -214.5q0 -88 72 -142t230.5 -54t354 49t307 106.5t220.5 161.5t109 180q0 12 -1.5 20.5t6 13.5t17.5 -5q27 -51 27 -107.5t-62 -132.5q-49 -59 -102 -102q-156 -125 -438 -188q-211 -47 -350.5 -47.5t-236.5 24.5t-169 98.5t-72 181z M795 1286q0 18 15 31.5t69 62.5q137 123 165 123q51 -18 164 -188q8 -14 8.5 -27.5t-8 -13.5t-20.5 11t-86 73.5t-84 73.5q-35 -20 -94 -68q-127 -104 -129 -78z" />
<glyph unicode="&#xcb;" horiz-adv-x="1075" d="M49 150.5q0 107.5 52.5 182.5t123.5 116q182 102 514 118q-59 68 -109 176.5t-50 217.5q0 74 35.5 136t119.5 88.5t125 26.5t59.5 -5t32 -10t24.5 -10t23.5 -13.5t20.5 -14.5t20.5 -17.5t24.5 -21.5t31 -28q31 -37 59 -43q4 -4 18.5 -5.5t25.5 -11.5t34.5 -68.5 t23.5 -96.5t-9 -80t-29 -42q-33 0 -64 103q-16 61 -27 82q-57 121 -122 176q-59 55 -121 55q-27 0 -54 -10q-98 -41 -120 -160q-10 -49 -10.5 -106.5t24.5 -146.5t76 -156q10 -12 108 -21q51 -6 59.5 -35.5t-24.5 -46.5q-10 -14 -88 0q-20 2 -53 11.5t-43 11.5 q-111 -2 -250 -49t-256 -144.5t-117 -214.5q0 -88 72 -142t230.5 -54t354 49t307 106.5t220.5 161.5t109 180q0 12 -1.5 20.5t6 13.5t17.5 -5q27 -51 27 -107.5t-62 -132.5q-49 -59 -102 -102q-156 -125 -438 -188q-211 -47 -350.5 -47.5t-236.5 24.5t-169 98.5t-72 181z M807 1335q0 4 57 49q68 55 73 55.5t5 -3.5l-12 -56q0 -16 -21.5 -48t-34.5 -32q-68 0 -67 35zM1130 1335q0 4 62.5 53.5t68 49.5t5.5 -4t-4 -21l-9 -33q0 -16 -20.5 -48t-32.5 -32q-70 0 -70 35z" />
<glyph unicode="&#xcc;" horiz-adv-x="638" d="M16.5 -3.5q-0.5 15.5 12.5 48.5q14 33 56 42t58 -7q74 -55 142 -55q119 0 207 114q166 221 348 932q-188 -16 -313.5 -76.5t-125.5 -158.5q0 -33 17.5 -57.5t33 -35t42 -24.5t37 -21.5t8.5 -13.5t-19 -2q-49 10 -104.5 59.5t-57.5 112.5q-6 23 -6 39q0 88 72 151 q139 119 438 119q0 8 6 21q2 14 32 20t56.5 1t24.5 -21q-8 -16 -10 -27q150 -10 225 -57q47 -29 47 -56q0 -12 -15 -12t-50 12q-82 29 -236 29q-4 -16 -65 -196q-8 -29 -37 -112t-45.5 -125t-45 -116.5t-51 -122t-51.5 -106.5t-58.5 -105.5t-69.5 -94.5t-66 -68h135t176 5 t83 -1t1 -15.5t-14.5 -17.5t-23.5 -16.5t-296 -16.5t-380 -8t-109 14q-8 10 -8.5 25.5zM752 1501q0 18 28 29q6 2 11.5 2h10.5t12 -2t11 -3t11.5 -5t11.5 -6.5t13 -7.5t11 -7q23 -14 59 -42.5t108.5 -82t74.5 -57.5t2 -9t-19.5 -5t-110.5 42t-134 66q-100 53 -100 88z" />
<glyph unicode="&#xcd;" horiz-adv-x="638" d="M16.5 -3.5q-0.5 15.5 12.5 48.5q14 33 56 42t58 -7q74 -55 142 -55q119 0 207 114q166 221 348 932q-188 -16 -313.5 -76.5t-125.5 -158.5q0 -33 17.5 -57.5t33 -35t42 -24.5t37 -21.5t8.5 -13.5t-19 -2q-49 10 -104.5 59.5t-57.5 112.5q-6 23 -6 39q0 88 72 151 q139 119 438 119q0 8 6 21q2 14 32 20t56.5 1t24.5 -21q-8 -16 -10 -27q150 -10 225 -57q47 -29 47 -56q0 -12 -15 -12t-50 12q-82 29 -236 29q-4 -16 -65 -196q-8 -29 -37 -112t-45.5 -125t-45 -116.5t-51 -122t-51.5 -106.5t-58.5 -105.5t-69.5 -94.5t-66 -68h135t176 5 t83 -1t1 -15.5t-14.5 -17.5t-23.5 -16.5t-296 -16.5t-380 -8t-109 14q-8 10 -8.5 25.5zM889 1312q0 7 4 12t27 19q68 47 86 62.5t55 40.5q76 55 100 90q16 4 23.5 4t36.5 -10q25 -14 24 -37q0 -18 -14 -33q-33 -26 -166 -89.5t-154.5 -64.5t-21.5 6z" />
<glyph unicode="&#xce;" horiz-adv-x="638" d="M16.5 -3.5q-0.5 15.5 12.5 48.5q14 33 56 42t58 -7q74 -55 142 -55q119 0 207 114q166 221 348 932q-188 -16 -313.5 -76.5t-125.5 -158.5q0 -33 17.5 -57.5t33 -35t42 -24.5t37 -21.5t8.5 -13.5t-19 -2q-49 10 -104.5 59.5t-57.5 112.5q-6 23 -6 39q0 88 72 151 q139 119 438 119q0 8 6 21q2 14 32 20t56.5 1t24.5 -21q-8 -16 -10 -27q150 -10 225 -57q47 -29 47 -56q0 -12 -15 -12t-50 12q-82 29 -236 29q-4 -16 -65 -196q-8 -29 -37 -112t-45.5 -125t-45 -116.5t-51 -122t-51.5 -106.5t-58.5 -105.5t-69.5 -94.5t-66 -68h135t176 5 t83 -1t1 -15.5t-14.5 -17.5t-23.5 -16.5t-296 -16.5t-380 -8t-109 14q-8 10 -8.5 25.5zM725 1296q0 19 13.5 29t68.5 61q139 125 168 125q26 -10 79.5 -74.5t74 -96t20.5 -45t-9.5 -13.5t-21.5 8q-12 14 -83.5 75.5t-84.5 74.5q-39 -23 -100.5 -73t-83.5 -67q-41 -23 -41 -4 z" />
<glyph unicode="&#xcf;" horiz-adv-x="638" d="M16.5 -3.5q-0.5 15.5 12.5 48.5q14 33 56 42t58 -7q74 -55 142 -55q119 0 207 114q166 221 348 932q-188 -16 -313.5 -76.5t-125.5 -158.5q0 -33 17.5 -57.5t33 -35t42 -24.5t37 -21.5t8.5 -13.5t-19 -2q-49 10 -104.5 59.5t-57.5 112.5q-6 23 -6 39q0 88 72 151 q139 119 438 119q0 8 6 21q2 14 32 20t56.5 1t24.5 -21q-8 -16 -10 -27q150 -10 225 -57q47 -29 47 -56q0 -12 -15 -12t-50 12q-82 29 -236 29q-4 -16 -65 -196q-8 -29 -37 -112t-45.5 -125t-45 -116.5t-51 -122t-51.5 -106.5t-58.5 -105.5t-69.5 -94.5t-66 -68h135t176 5 t83 -1t1 -15.5t-14.5 -17.5t-23.5 -16.5t-296 -16.5t-380 -8t-109 14q-8 10 -8.5 25.5zM739 1352q0 6 43 39.5t62.5 49t26 15.5t-1 -23.5t-7.5 -37t-20.5 -45t-32.5 -31.5q-70 0 -70 33zM1065 1352q0 6 41 41q80 63 87 63t7 -4l-12 -53q0 -16 -21.5 -48t-31.5 -32 q-70 0 -70 33z" />
<glyph unicode="&#xd0;" horiz-adv-x="1161" d="M29 110.5q0 26.5 10 36t22 -7.5l23 -28q47 141 104 299q-74 -4 -94 -4q-49 -4 -47 22q2 27 41 47q14 6 25 6h104q164 420 217 488q16 8 44 5t51.5 -18.5t15.5 -29.5q-41 -82 -120 -228.5t-114 -216.5h107q109 0 108 -24q4 -31 -106 -31l-141 -10q-84 -186 -125 -361 q94 -57 202.5 -57t204.5 25.5t200.5 89t184.5 147.5t129 195.5t49 228.5q0 254 -235 338q-98 35 -249 35t-376 -66q-20 -6 -44.5 9.5t-25.5 36t31 36.5q80 33 264 43q45 4 91 4q182 0 334.5 -57t229.5 -167t77 -255t-78 -281q-145 -254 -475 -360q-143 -47 -280.5 -47 t-246.5 43v-8q-14 -12 -43.5 -15.5t-36.5 15.5q-1 14 5 53q-37 43 -37 69.5z" />
<glyph unicode="&#xd1;" horiz-adv-x="1064" d="M-352 -147.5q0 8.5 2 20.5t12 7t21 -38q14 -55 71 -69q35 -10 68 -10.5t63 10.5q197 61 389 411q133 256 271 721q-113 -102 -266 -112q-20 -2 -21.5 14t23.5 20q88 8 182 92.5t141 192.5q2 8 22.5 18.5t45 10.5t47 -6.5t16.5 -25.5t-16 -105t-10 -160q0 -371 112 -688 q80 -223 203 -223.5t229.5 214.5t146.5 426t40 296t-8.5 127t-55.5 180q-2 6 14.5 21t24.5 17q39 0 73 -47t68 -110q59 -115 111 -115l25 6q18 0 22 -20q0 -16 -14 -27.5t-31 -13.5q-49 0 -131 71q2 -31 2 -63q0 -164 -65.5 -399.5t-197.5 -434t-269 -198.5q-115 0 -198 90 t-126 235q-78 276 -78 596q-141 -371 -270 -610q-262 -463 -510 -463q-41 0 -72 8q-84 29 -104 115q-2 10 -2 18.5zM874 1329q0 2 19.5 31t46.5 59.5t62.5 49t58 18.5t37 -6t76.5 -37q92 -47 131 -47q61 0 86 67q6 14 20 8t14 -10q0 -47 -82 -106q-35 -25 -71 -25l-35 6 q-18 6 -58 23.5t-57 23.5q-88 27 -114 13q-61 -14 -103 -72q-4 -6 -10 -6t-13.5 4t-7.5 6z" />
<glyph unicode="&#xd2;" horiz-adv-x="1257" d="M94 508q0 147 87 289.5t233 246.5q102 74 234 118t253 46q252 0 409.5 -137t157.5 -381q0 -305 -211 -547q-279 -315 -628 -315q-88 0 -178 43q-178 90 -232 313q-16 78 -16 152q0 154 76 301q131 252 419 319q53 10 99 11q102 0 149 -48.5t27 -48.5l-33 17 q-43 16 -74.5 16t-54.5 -6q-127 -31 -233 -115q-190 -147 -256 -389q-27 -94 -27 -194.5t59 -192.5q86 -133 264 -133q68 0 148 18q137 31 278.5 171.5t231.5 331t90 356.5q0 217 -121 315q-117 94 -293 94q-27 0 -57 -2q-227 -14 -420 -153q-141 -98 -237.5 -244 t-106.5 -289q-2 -29 -20 -16q-16 12 -17 53zM823 1491q0 18 29 29q6 2 11 2h10.5t12.5 -2t11 -3t11 -5.5t11.5 -6.5t13.5 -7t13 -7q20 -14 56 -43t109 -82t75 -57t2 -9.5t-19.5 -5.5t-110.5 42t-134 65q-100 55 -101 90z" />
<glyph unicode="&#xd3;" horiz-adv-x="1257" d="M94 508q0 147 87 289.5t233 246.5q102 74 234 118t253 46q252 0 409.5 -137t157.5 -381q0 -305 -211 -547q-279 -315 -628 -315q-88 0 -178 43q-178 90 -232 313q-16 78 -16 152q0 154 76 301q131 252 419 319q53 10 99 11q102 0 149 -48.5t27 -48.5l-33 17 q-43 16 -74.5 16t-54.5 -6q-127 -31 -233 -115q-190 -147 -256 -389q-27 -94 -27 -194.5t59 -192.5q86 -133 264 -133q68 0 148 18q137 31 278.5 171.5t231.5 331t90 356.5q0 217 -121 315q-117 94 -293 94q-27 0 -57 -2q-227 -14 -420 -153q-141 -98 -237.5 -244 t-106.5 -289q-2 -29 -20 -16q-16 12 -17 53zM862 1275q0 7 4 12t28 21.5t52.5 35t38.5 27.5t69.5 54t82.5 76q12 4 18 4l41 -12q23 -14 23 -36.5t-11 -29.5l-2 -4q-35 -26 -168 -89.5t-154.5 -64.5t-21.5 6z" />
<glyph unicode="&#xd4;" horiz-adv-x="1257" d="M94 508q0 147 87 289.5t233 246.5q102 74 234 118t253 46q252 0 409.5 -137t157.5 -381q0 -305 -211 -547q-279 -315 -628 -315q-88 0 -178 43q-178 90 -232 313q-16 78 -16 152q0 154 76 301q131 252 419 319q53 10 99 11q102 0 149 -48.5t27 -48.5l-33 17 q-43 16 -74.5 16t-54.5 -6q-127 -31 -233 -115q-190 -147 -256 -389q-27 -94 -27 -194.5t59 -192.5q86 -133 264 -133q68 0 148 18q137 31 278.5 171.5t231.5 331t90 356.5q0 217 -121 315q-117 94 -293 94q-27 0 -57 -2q-227 -14 -420 -153q-141 -98 -237.5 -244 t-106.5 -289q-2 -29 -20 -16q-16 12 -17 53zM838 1282q0 18 13 28.5t71 61.5q131 123 165 127q27 -10 80.5 -74.5t73 -97.5t19.5 -46t-8.5 -13t-20.5 10q-10 12 -83 74.5t-85 74.5q-37 -23 -97.5 -71.5t-94 -70t-33.5 -3.5z" />
<glyph unicode="&#xd5;" horiz-adv-x="1257" d="M94 508q0 147 87 289.5t233 246.5q102 74 234 118t253 46q252 0 409.5 -137t157.5 -381q0 -305 -211 -547q-279 -315 -628 -315q-88 0 -178 43q-178 90 -232 313q-16 78 -16 152q0 154 76 301q131 252 419 319q53 10 99 11q102 0 149 -48.5t27 -48.5l-33 17 q-43 16 -74.5 16t-54.5 -6q-127 -31 -233 -115q-190 -147 -256 -389q-27 -94 -27 -194.5t59 -192.5q86 -133 264 -133q68 0 148 18q137 31 278.5 171.5t231.5 331t90 356.5q0 217 -121 315q-117 94 -293 94q-27 0 -57 -2q-227 -14 -420 -153q-141 -98 -237.5 -244 t-106.5 -289q-2 -29 -20 -16q-16 12 -17 53zM829 1329q0 2 19.5 31t46.5 59.5t62.5 49t58 18.5t38 -6t76.5 -37q90 -47 130 -47q59 0 83 67q8 16 22.5 9t14.5 -11q0 -45 -82 -106q-37 -25 -63.5 -25t-43.5 6t-58 23.5t-56 23.5q-88 29 -114 13q-66 -16 -103 -72 q-4 -6 -11 -6t-13.5 4t-6.5 6z" />
<glyph unicode="&#xd6;" horiz-adv-x="1257" d="M94 508q0 147 87 289.5t233 246.5q102 74 234 118t253 46q252 0 409.5 -137t157.5 -381q0 -305 -211 -547q-279 -315 -628 -315q-88 0 -178 43q-178 90 -232 313q-16 78 -16 152q0 154 76 301q131 252 419 319q53 10 99 11q102 0 149 -48.5t27 -48.5l-33 17 q-43 16 -74.5 16t-54.5 -6q-127 -31 -233 -115q-190 -147 -256 -389q-27 -94 -27 -194.5t59 -192.5q86 -133 264 -133q68 0 148 18q137 31 278.5 171.5t231.5 331t90 356.5q0 217 -121 315q-117 94 -293 94q-27 0 -57 -2q-227 -14 -420 -153q-141 -98 -237.5 -244 t-106.5 -289q-2 -29 -20 -16q-16 12 -17 53zM831 1358q0 4 62.5 53t67.5 49q10 0 2 -24l-9 -33q0 -16 -20.5 -47t-32.5 -31q-70 0 -70 33zM1157 1358q0 4 57 51q68 53 73 53t5 -4l-12 -55q0 -16 -21.5 -47t-31.5 -31q-70 0 -70 33z" />
<glyph unicode="&#xd7;" horiz-adv-x="956" d="M43 -12q0 10 8 22q63 100 420 400q-127 150 -297 303q-29 25 0 41q12 6 25.5 6t29.5 -8q76 -43 291 -301q297 254 379 297q12 6 27.5 6t30 -12.5t14.5 -23.5t-17 -22q-207 -131 -399 -286q250 -297 297 -400q12 -27 -29 -35q-12 -2 -31.5 -2t-33.5 25q-141 236 -252 371 q-190 -158 -391 -373q-25 -27 -48.5 -27t-23.5 19z" />
<glyph unicode="&#xd8;" horiz-adv-x="1257" d="M125 644.5q0 113.5 76 213.5q98 131 237 186q154 68 328 68q152 0 287 -63q25 33 32 36q23 20 41.5 20.5t26.5 -1.5q33 -4 12 -25l-57 -67l2 -2q162 -129 162 -355q0 -125 -60 -258q-92 -215 -273 -345t-388 -130q-111 0 -201 41l-35 -57q-27 -39 -65 -39q-20 0 -14 20 q18 41 61 109q-133 98 -133 299q0 100 41 203q-80 33 -80 146.5zM203 652.5q0 -72.5 24 -101.5q106 231 353 328q125 51 217 51t127 -45l102 135q-98 47 -229 47q-98 0 -195 -29q-254 -76 -348 -229q-51 -84 -51 -156.5zM225 264q1 -157 97 -229q160 248 571 809 q-31 16 -80 16q-117 0 -244 -69q-182 -102 -274 -273q4 -2 23.5 -4t7.5 -18q-6 -8 -47 -9q-53 -104 -54 -223zM373 4q53 -20 131 -20q184 0 367.5 138t267.5 335q67 153 67 280q0 166 -112 242l-9 4q-156 -190 -365.5 -474t-346.5 -505z" />
<glyph unicode="&#xd9;" horiz-adv-x="970" d="M23 752q0 20 26 22q80 8 238.5 136t191.5 190q2 6 18.5 16t51.5 10q70 0 59 -26q-352 -594 -399 -848q-10 -57 -10 -102q0 -143 102 -144q168 0 496 318q137 893 436 893q147 0 147 -136q0 -33 -14 -69q-33 -109 -107.5 -222.5t-209 -272.5t-158.5 -191 q-29 -145 -37 -367v-22q0 -195 68 -277q29 -33 54 -33t46 25q10 16 25.5 31.5t24.5 10.5t3 -26q-20 -33 -26 -39q-33 -41 -115 -41h-14q-119 2 -152 201q-8 63 -8 171t26 290q-328 -316 -553 -316q-145 0 -145 180.5t170 528.5q92 190 105.5 222t13.5 40t-10.5 8t-44.5 -28 q-160 -135 -279 -144q-20 -2 -20 11zM631 1417q0 18 28 27q8 2 17 2q37 0 102 -47q121 -92 168 -125q49 -39 49 -45q0 -10 -18 -10q-47 0 -272 122q-74 43 -74 76zM924 457q115 109 228.5 278.5t150.5 308.5q10 37 10 68t-13.5 43t-25.5 12q-29 0 -76 -51 q-186 -207 -274 -659z" />
<glyph unicode="&#xda;" horiz-adv-x="970" d="M23 752q0 20 26 22q80 8 238.5 136t191.5 190q2 6 18.5 16t51.5 10q70 0 59 -26q-352 -594 -399 -848q-10 -57 -10 -102q0 -143 102 -144q168 0 496 318q137 893 436 893q147 0 147 -136q0 -33 -14 -69q-33 -109 -107.5 -222.5t-209 -272.5t-158.5 -191 q-29 -145 -37 -367v-22q0 -195 68 -277q29 -33 54 -33t46 25q10 16 25.5 31.5t24.5 10.5t3 -26q-20 -33 -26 -39q-33 -41 -115 -41h-14q-119 2 -152 201q-8 63 -8 171t26 290q-328 -316 -553 -316q-145 0 -145 180.5t170 528.5q92 190 105.5 222t13.5 40t-10.5 8t-44.5 -28 q-160 -135 -279 -144q-20 -2 -20 11zM750 1224q0 7 4 12t27.5 21.5t52 35t39 27.5t69.5 54t82 76q12 4 18 4l41 -12q23 -14 23 -37t-10 -29l-2 -4q-35 -26 -168 -89.5t-154.5 -64.5t-21.5 6zM924 457q115 109 228.5 278.5t150.5 308.5q10 37 10 68t-13.5 43t-25.5 12 q-29 0 -76 -51q-186 -207 -274 -659z" />
<glyph unicode="&#xdb;" horiz-adv-x="970" d="M23 752q0 20 26 22q80 8 238.5 136t191.5 190q2 6 18.5 16t51.5 10q70 0 59 -26q-352 -594 -399 -848q-10 -57 -10 -102q0 -143 102 -144q168 0 496 318q137 893 436 893q147 0 147 -136q0 -33 -14 -69q-33 -109 -107.5 -222.5t-209 -272.5t-158.5 -191 q-29 -145 -37 -367v-22q0 -195 68 -277q29 -33 54 -33t46 25q10 16 25.5 31.5t24.5 10.5t3 -26q-20 -33 -26 -39q-33 -41 -115 -41h-14q-119 2 -152 201q-8 63 -8 171t26 290q-328 -316 -553 -316q-145 0 -145 180.5t170 528.5q92 190 105.5 222t13.5 40t-10.5 8t-44.5 -28 q-160 -135 -279 -144q-20 -2 -20 11zM653 1249.5q0 18.5 12.5 28.5t69.5 61q135 125 168 125q27 -10 79 -73.5t72.5 -96t20.5 -46t-8 -13.5t-20 10q-10 12 -83 73.5t-85 74.5q-37 -23 -97.5 -71t-94.5 -69.5t-34 -3zM924 457q115 109 228.5 278.5t150.5 308.5q10 37 10 68 t-13.5 43t-25.5 12q-29 0 -76 -51q-186 -207 -274 -659z" />
<glyph unicode="&#xdc;" horiz-adv-x="970" d="M23 752q0 20 26 22q80 8 238.5 136t191.5 190q2 6 18.5 16t51.5 10q70 0 59 -26q-352 -594 -399 -848q-10 -57 -10 -102q0 -143 102 -144q168 0 496 318q137 893 436 893q147 0 147 -136q0 -33 -14 -69q-33 -109 -107.5 -222.5t-209 -272.5t-158.5 -191 q-29 -145 -37 -367v-22q0 -195 68 -277q29 -33 54 -33t46 25q10 16 25.5 31.5t24.5 10.5t3 -26q-20 -33 -26 -39q-33 -41 -115 -41h-14q-119 2 -152 201q-8 63 -8 171t26 290q-328 -316 -553 -316q-145 0 -145 180.5t170 528.5q92 190 105.5 222t13.5 40t-10.5 8t-44.5 -28 q-160 -135 -279 -144q-20 -2 -20 11zM850 1356q0 4 57 49q68 55 73 55t5 -4l-12 -55q0 -16 -20.5 -48t-32.5 -32q-70 0 -70 35zM924 457q115 109 228.5 278.5t150.5 308.5q10 37 10 68t-13.5 43t-25.5 12q-29 0 -76 -51q-186 -207 -274 -659zM1176 1356q0 4 57 49 q68 55 73 55t5 -4l-13 -55q0 -16 -21.5 -48t-33.5 -32q-68 0 -67 35z" />
<glyph unicode="&#xdd;" horiz-adv-x="1077" d="M14 -633q0 123 129 271q254 291 680 428q14 33 67.5 231.5t80.5 286.5q-182 -276 -379 -463t-359 -187q-145 0 -145 189q0 172 170 520q92 190 109.5 230t1.5 38q-16 -4 -47 -26q-160 -135 -279 -144q-20 -2 -20 11q4 18 26 22q80 8 238.5 136t191.5 190q8 25 78 24 q53 -4 51 -24q-352 -592 -399 -848q-10 -57 -10 -102q0 -143 102 -144q84 0 192.5 87t215.5 222q252 328 389 654q37 86 57 102q35 57 131 70q49 6 91 -2.5t44 -8.5q23 -4 23 -18q0 -2 -2 -6q-6 -16 -22.5 -15t-24.5 1q-66 0 -115 -53.5t-86 -154t-139.5 -428t-114.5 -360.5 q106 27 142 27t46 -6q14 -12 6 -22.5t-16 -6.5t-31.5 4t-93 -17.5t-82.5 -49.5q-205 -518 -495 -721q-129 -90 -234 -90q-39 0 -71 12q-96 35 -97 141zM125 -606q0 -25 6 -45q20 -80 102 -80q121 0 252 162q199 240 326 596q-354 -117 -567 -379q-119 -145 -119 -254z M883 1267q0 7 5 13t30 23q63 41 81.5 55t78 59t81.5 76q6 2 19.5 2t40.5 -10q25 -14 24 -37q0 -16 -22.5 -36.5t-157.5 -84t-157.5 -65.5t-22.5 5z" />
<glyph unicode="&#xde;" horiz-adv-x="929" d="M25 782q0 59 108.5 115.5t278.5 73.5q94 221 112 241q10 6 21.5 6.5t29 -3t42 -19.5t18.5 -31l-94 -186q152 0 280.5 -37t193 -113.5t64.5 -162.5t-60.5 -171t-167 -136.5t-232 -75t-188 -23.5t-98.5 12.5t-24 30.5q6 10 29.5 5t64.5 -5t72 2q205 23 364.5 158t159.5 254 q0 150 -239 194q-70 12 -134.5 12.5t-119.5 -5.5q-307 -618 -365 -930q-18 -16 -45.5 -16.5t-34.5 16.5q-4 55 97.5 339.5t220.5 567.5q-168 -45 -328 -129q-27 -14 -26 16z" />
<glyph unicode="&#xdf;" horiz-adv-x="1073" d="M-309 -272q0 29 31.5 44t37.5 -22q2 -6 2 -35.5t20.5 -53t57.5 -23.5q80 0 166 113.5t165 299t171 457.5h-4q-145 -27 -186 -27q-70 0 -70 37q0 18 35 31.5t54 13.5t32.5 -12t19.5 -12q43 0 117 12h18l43 119q35 94 87.5 184t144.5 172q94 84 205.5 84t162.5 -66 q33 -37 33 -96q0 -72 -47 -135q-59 -88 -199 -168q-90 -49 -104 -69.5t-25 -38.5q-16 -37 37 -80q211 -166 256 -234q29 -51 29 -99t-41 -93q-72 -82 -178 -127q-70 -31 -197 -31q-147 0 -174 51q-8 16 8 17q10 0 23 -9q27 -25 58.5 -24.5t74.5 4.5t114.5 28.5t126 85 t54.5 124t-44 115.5t-98.5 89t-98.5 88.5t-44 98.5q0 37 86 76.5t123 59t93.5 62.5t89 94.5t32.5 89.5t-14 64q-33 68 -127 68h-6q-80 0 -179.5 -88t-185.5 -275.5t-136 -367t-124 -370t-155.5 -282.5t-178.5 -92q-37 0 -78 14q-115 39 -114 134z" />
<glyph unicode="&#xe0;" d="M23 129q0 41 18 78q41 86 132 167t189.5 138t155.5 71.5t111.5 14.5t93.5 -27.5t39 -58.5q0 -10 -2 -12t-10 2q-25 39 -102 39t-174 -50.5t-183 -125.5q-72 -68 -126 -153t-54 -124t13 -57.5t32 -18.5q41 0 129 70q145 123 198 180q188 203 203 203q25 0 59.5 -14.5 t22.5 -34.5q-125 -178 -125 -344q0 -29 17.5 -47.5t37.5 -18.5q51 0 195 129q94 86 151 168q8 10 18.5 5t10.5 -10t-4 -11q-29 -53 -109.5 -139.5t-145 -134.5t-132.5 -58q-25 -2 -43 -2t-49 17.5t-41 51t-10 95.5t39 164q-8 -4 -76 -82t-157 -150t-161 -72 q-33 0 -70.5 19.5t-64 55.5t-26.5 77zM383 940q0 18 29 29q6 2 11 2h10t12.5 -2t11.5 -3t11 -5.5t11 -6.5t13.5 -7t11.5 -7q23 -14 58.5 -43t108 -81t75 -56t2.5 -6q0 -10 -19.5 -10.5t-111 41.5t-134.5 67q-100 53 -100 88z" />
<glyph unicode="&#xe1;" d="M23 129q0 41 18 78q41 86 132 167t189.5 138t155.5 71.5t111.5 14.5t93.5 -27.5t39 -58.5q0 -10 -2 -12t-10 2q-25 39 -102 39t-174 -50.5t-183 -125.5q-72 -68 -126 -153t-54 -124q0 -76 43 -76t131 70q145 123 198 180q188 203 203 203q25 0 59.5 -14.5t22.5 -34.5 q-104 -147 -123 -297q-2 -18 -2 -47t16 -47q31 -33 84.5 -4.5t148.5 114.5t152 168q8 10 18.5 5t10.5 -9q0 -31 -97 -134.5t-149 -139.5q-96 -72 -178 -72q-78 0 -104 78q-6 25 -6 55q0 92 39 195q-8 -4 -76 -82t-157 -150t-161 -72q-33 0 -70.5 19.5t-64 55.5t-26.5 77z M596 752.5q0 7.5 4 12.5t27.5 21.5t52.5 35t39 27.5t69.5 54t81.5 76q12 4 19 4l41 -12q23 -14 22.5 -37t-10.5 -29l-2 -4q-35 -27 -168 -90t-154.5 -64.5t-21.5 6z" />
<glyph unicode="&#xe2;" d="M23 129q0 41 18 78q41 86 132 167t189.5 138t155.5 71.5t111.5 14.5t93.5 -27.5t39 -58.5q0 -10 -2 -12t-10 2q-25 39 -102 39t-174 -50.5t-183 -125.5q-72 -68 -126 -153t-54 -124q0 -76 43 -76t131 70q145 123 198 180q188 203 203 203q25 0 59.5 -14.5t22.5 -34.5 q-104 -147 -123 -297q-2 -18 -2 -47t16 -47q31 -33 84.5 -4.5t148.5 114.5t152 168q8 10 18.5 5t10.5 -9q0 -31 -97 -134.5t-149 -139.5q-96 -72 -178 -72q-78 0 -104 78q-6 25 -6 55q0 92 39 195q-8 -4 -76 -82t-157 -150t-161 -72q-33 0 -70.5 19.5t-64 55.5t-26.5 77z M438 735.5q0 18.5 15.5 30.5t68.5 61q137 123 166 123q27 -10 79 -73.5t72.5 -96t20.5 -46t-8 -13.5t-20.5 11t-84 72.5t-83.5 74.5q-37 -23 -97.5 -71t-94.5 -69.5t-34 -3z" />
<glyph unicode="&#xe3;" d="M23 129q0 41 18 78q41 86 132 167t189.5 138t155.5 71.5t111.5 14.5t93.5 -27.5t39 -58.5q0 -10 -2 -12t-10 2q-25 39 -102 39t-174 -50.5t-183 -125.5q-72 -68 -126 -153t-54 -124q0 -76 43 -76t131 70q145 123 198 180q188 203 203 203q25 0 59.5 -14.5t22.5 -34.5 q-104 -147 -123 -297q-2 -18 -2 -47t16 -47q31 -33 84.5 -4.5t148.5 114.5t152 168q8 10 18.5 5t10.5 -9q0 -31 -97 -134.5t-149 -139.5q-96 -72 -178 -72q-78 0 -104 78q-6 25 -6 55q0 92 39 195q-8 -4 -76 -82t-157 -150t-161 -72q-33 0 -70.5 19.5t-64 55.5t-26.5 77z M379 751q0 3 20.5 31.5t46 58t61.5 48t57.5 18.5t40 -6t75.5 -37q92 -45 129 -45q59 0 84 68q4 6 20.5 6t16.5 -10q0 -47 -82 -105q-35 -27 -62.5 -26.5t-45 6.5t-57.5 23.5t-56 21.5q-92 29 -115 14q-68 -16 -102 -72q-4 -6 -11.5 -6t-13.5 4.5t-6 7.5z" />
<glyph unicode="&#xe4;" d="M23 129q0 41 18 78q41 86 132 167t189.5 138t155.5 71.5t111.5 14.5t93.5 -27.5t39 -58.5q0 -10 -2 -12t-10 2q-25 39 -102 39t-174 -50.5t-183 -125.5q-72 -68 -126 -153t-54 -124t13 -57.5t32 -18.5q41 0 129 70q145 123 198 180q188 203 203 203q25 0 59.5 -14.5 t22.5 -34.5q-125 -178 -125 -344q0 -29 17.5 -47.5t37.5 -18.5q51 0 195 129q94 86 151 168q8 10 18.5 5t10.5 -10t-4 -11q-29 -53 -109.5 -139.5t-145 -134.5t-132.5 -58q-25 -2 -43 -2t-49 17.5t-41 51t-10 95.5t39 164q-8 -4 -76 -82t-157 -150t-161 -72 q-33 0 -70.5 19.5t-64 55.5t-26.5 77zM420 778q0 8 61.5 56.5t68.5 48.5t0 -23.5t-7 -37t-20.5 -45.5t-33.5 -32q-69 0 -69 33zM745 778q0 6 41 41q80 63 87.5 63.5t7.5 -3.5l-13 -54q0 -16 -21.5 -48t-33.5 -32q-68 0 -68 33z" />
<glyph unicode="&#xe5;" d="M23 129q0 41 18 78q41 86 132 167t189.5 138t155.5 71.5t111.5 14.5t93.5 -27.5t39 -58.5q0 -10 -2 -12t-10 2q-25 39 -102 39t-174 -50.5t-183 -125.5q-72 -68 -126 -153t-54 -124t13 -57.5t32 -18.5q41 0 129 70q145 123 198 180q188 203 203 203q25 0 59.5 -14.5 t22.5 -34.5q-125 -178 -125 -344q0 -29 17.5 -47.5t37.5 -18.5q51 0 195 129q94 86 151 168q8 10 18.5 5t10.5 -10t-4 -11q-29 -53 -109.5 -139.5t-145 -134.5t-132.5 -58q-25 -2 -43 -2t-49 17.5t-41 51t-10 95.5t39 164q-8 -4 -76 -82t-157 -150t-161 -72 q-33 0 -70.5 19.5t-64 55.5t-26.5 77zM602 848q0 74 82 125q37 31 102 31q134 0 134 -86q0 -76 -91 -142q-45 -29 -86 -28.5t-75 14.5q-66 25 -66 86zM657 844q0 -68 74 -68q47 0 83 32t48 66q10 13 10 33q0 72 -71 72q-53 0 -98.5 -50t-45.5 -85z" />
<glyph unicode="&#xe6;" horiz-adv-x="1157" d="M23 129q0 41 18 78q41 86 132 167t189.5 138t155.5 71.5t111.5 14.5t93.5 -27.5t39 -58.5q0 -10 -2 -12t-10 2q-25 39 -102 39t-174 -50.5t-183 -125.5q-72 -68 -126 -153t-54 -124q0 -76 43 -76t131 70q145 123 198 180q188 203 203 203q39 0 70 -19q94 80 173 116 t128 36q111 0 110 -109q0 -55 -30 -90q-51 -76 -165 -132t-196 -62q-29 -2 -31 16q-2 8 5.5 10t11.5 2q102 10 256 134q35 27 63.5 63.5t28.5 70.5t-33 34q-27 0 -71 -23q-96 -45 -203 -156.5t-139 -218.5q-10 -33 -10.5 -64.5t26.5 -60t82 -28.5q61 0 141 32 q213 86 359 285q8 8 16 8q12 0 12 -12q0 -6 -6 -14q-57 -100 -151.5 -181.5t-191.5 -121t-170 -39.5t-134 32q-92 47 -92 156q0 63 33 152q-8 -4 -76 -82t-157 -150t-161 -72q-33 0 -70.5 19.5t-64 55.5t-26.5 77z" />
<glyph unicode="&#xe7;" horiz-adv-x="645" d="M-59 -506q0 8 10 12.5t29 -22.5q41 -63 141 -64q135 0 239 107q53 55 53.5 110.5t-30.5 78t-64 22.5l-118 -14q-16 0 -19.5 7t32.5 54t59.5 104.5t31.5 59.5q-29 -4 -55 -4q-109 0 -168 63q-41 43 -41 100.5t29 124.5q51 117 219 240t266 123q25 0 47 -6q57 -20 57 -66 q0 -31 -22.5 -69.5t-33.5 -27t-7 23.5l10 41q0 41 -31 40q-84 0 -229 -131t-184 -264q-10 -35 -10 -62.5t12 -45.5q25 -37 76 -37t110 14q131 37 218 105.5t184 191.5q8 10 19 6t11 -11t-6 -22q-193 -268 -428 -319q23 0 19 -18q-6 -16 -59.5 -86t-57.5 -74q43 8 94 8 t96 -27q70 -41 70 -116.5t-72 -141.5q-129 -117 -297 -116l-57 4q-94 12 -133 78q-10 18 -10 26z" />
<glyph unicode="&#xe8;" horiz-adv-x="653" d="M41 119q0 174 248 354q168 123 266 123q111 -1 111 -107q0 -55 -31 -90q-51 -76 -166 -132t-195 -62q-23 -2 -29.5 12t15.5 16q47 4 121 44t135 90q92 70 92 133q0 35 -33 35q-27 0 -71 -23q-96 -45 -203 -156q-150 -158 -149 -282q0 -33 26.5 -61.5t85 -28.5t137.5 32 q231 94 357 285q12 16 22 6q8 -4 8 -10t-6 -14q-61 -102 -154 -182.5t-200 -125.5l-139 -32h-21q-227 16 -227 176zM346 942q0 18 31 29q6 2 14 2q37 0 103 -47q27 -23 206 -158q11 -4 11 -13.5t-18.5 -9.5t-112 42t-134.5 65q-100 59 -100 90z" />
<glyph unicode="&#xe9;" horiz-adv-x="653" d="M43 117q0 49 27 116q51 117 219 240t266 123q111 0 111 -107q0 -55 -31 -90q-51 -76 -166 -132t-195 -62q-29 -2 -30 16q-2 8 5 10t11 2q47 4 121 46q137 74 201 151q27 37 26.5 71t-33.5 34q-27 0 -71 -23q-96 -45 -202.5 -156.5t-139.5 -218.5q-10 -33 -10 -64.5 t26.5 -60t81.5 -28.5q61 0 141 32q231 94 357 285q12 16 22 6q16 -6 2 -24q-61 -102 -155 -183q-182 -156 -355 -155q-147 0 -206 88q-23 35 -23 84zM459 750.5q0 7.5 4 12.5t26.5 21.5t50 35t41 28.5t50.5 37q70 51 100 92q13 4 21 4l39 -12q25 -14 24 -37q0 -18 -14 -33 q-33 -27 -167 -90.5t-154.5 -64.5t-20.5 6.5z" />
<glyph unicode="&#xea;" horiz-adv-x="653" d="M43 117q0 49 27 116q51 117 219 240t266 123q111 0 111 -107q0 -55 -31 -90q-51 -76 -166 -132t-195 -62q-29 -2 -30 16q-2 8 5 10t11 2q47 4 121 46q137 74 201 151q27 37 26.5 71t-33.5 34q-27 0 -71 -23q-96 -45 -202.5 -156.5t-139.5 -218.5q-10 -33 -10 -64.5 t26.5 -60t81.5 -28.5q61 0 141 32q231 94 357 285q12 16 22 6q16 -6 2 -24q-61 -102 -155 -183q-182 -156 -355 -155q-147 0 -206 88q-23 35 -23 84zM385 775.5q0 17.5 15.5 30.5t68.5 62q137 123 166 123q51 -18 164 -188q8 -14 8 -27.5t-8 -13.5t-20.5 11t-86.5 73.5 t-84 73.5q-35 -20 -94 -68.5t-94 -71t-35 -5z" />
<glyph unicode="&#xeb;" horiz-adv-x="653" d="M41 119q0 174 248 354q168 123 266 123q111 -1 111 -107q0 -55 -31 -90q-51 -76 -166 -132t-195 -62q-23 -2 -29.5 12t15.5 16q47 4 121 44t135 90q92 70 92 133q0 35 -33 35q-27 0 -71 -23q-96 -45 -203 -156q-150 -158 -149 -282q0 -33 26.5 -61.5t85 -28.5t137.5 32 q231 94 357 285q12 16 22 6q16 -6 2 -24q-61 -102 -154 -182.5t-200 -125.5l-139 -32h-21q-227 16 -227 176zM383 776q0 4 62.5 53.5t68.5 49.5t-1 -22.5t-7 -36t-20.5 -45.5t-32.5 -32q-70 0 -70 33zM709 776q0 4 62.5 53.5t67.5 49.5t5 -2l-13 -54q0 -16 -21.5 -48 t-31.5 -32q-70 0 -69 33z" />
<glyph unicode="&#xec;" horiz-adv-x="462" d="M23 191.5q0 7.5 8 17.5q100 125 157 211q-4 10 5 26q41 115 71 121h15q51 0 61 -32q4 -18 -5 -36t-13.5 -28t-6.5 -16q-10 -20 -20 -39q-117 -233 -123 -297q-2 -18 -2 -47t16 -47q29 -33 82.5 -4.5t148.5 114.5t154 168q8 10 18.5 5t10.5 -10t-4 -11 q-31 -56 -110.5 -142t-145.5 -133q-80 -59 -174 -59q-18 0 -49 16q-49 29 -49 98.5t65 215.5q-10 -23 -80 -103q-18 -20 -28 0q-2 4 -2 11.5zM141 942q0 18 31 29q6 2 14 2q37 0 103 -47q27 -23 207 -158q10 -4 10 -13.5t-18.5 -9.5t-111.5 42t-134 65q-100 59 -101 90z" />
<glyph unicode="&#xed;" horiz-adv-x="462" d="M23 191.5q0 7.5 8 17.5q100 125 157 211q-4 10 5 26q41 115 71 121h15q51 0 61 -32q4 -18 -5 -36t-13.5 -28t-6.5 -16q-10 -20 -20 -39q-117 -233 -123 -297q-2 -18 -2 -47t16 -47q29 -33 82.5 -4.5t148.5 114.5t154 168q8 10 21 4q30 -15 -107 -162q-80 -86 -145 -133 q-80 -59 -174 -59q-18 0 -49 16q-49 29 -49 98.5t65 215.5q-10 -23 -80 -103q-18 -20 -28 0q-2 4 -2 11.5zM266 749.5q0 6.5 5 12.5t29 22.5t52.5 35t42 29.5t47.5 36q78 59 101 92q12 4 18 4l41 -12q23 -14 23 -37q0 -20 -13 -33q-35 -27 -168 -90.5t-155.5 -64.5 t-22.5 5.5z" />
<glyph unicode="&#xee;" horiz-adv-x="462" d="M23 191.5q0 7.5 8 17.5q100 125 157 211q-4 10 5 26q41 115 71 121h15q51 0 61 -32q4 -18 -5 -36t-13.5 -28t-6.5 -16q-10 -20 -20 -39q-117 -233 -123 -297q-2 -18 -2 -47t16 -47q29 -33 82.5 -4.5t148.5 114.5t154 168q8 10 18.5 5t10.5 -10t-4 -11 q-31 -56 -110.5 -142t-145.5 -133q-80 -59 -174 -59q-18 0 -49 16q-49 29 -49 98.5t65 215.5q-10 -23 -80 -103q-18 -20 -28 0q-2 4 -2 11.5zM154 778.5q0 18.5 15 30.5t69 61q137 123 165 123q27 -10 79.5 -73.5t74 -96t21.5 -46t-9.5 -13.5t-21.5 10q-10 12 -84 73.5 t-84 74.5q-37 -23 -97.5 -71t-94 -69.5t-33.5 -3z" />
<glyph unicode="&#xef;" horiz-adv-x="462" d="M23 191.5q0 7.5 8 17.5q100 125 157 211q-4 10 5 26q41 115 71 121h15q51 0 61 -32q4 -18 -5 -36t-13.5 -28t-6.5 -16q-10 -20 -20 -39q-117 -233 -123 -297q-2 -18 -2 -47t16 -47q29 -33 82.5 -4.5t148.5 114.5t154 168q8 10 21 4q30 -15 -107 -162q-80 -86 -145 -133 q-80 -59 -174 -59q-18 0 -49 16q-49 29 -49 98.5t65 215.5q-10 -23 -80 -103q-18 -20 -28 0q-2 4 -2 11.5zM154 776q0 4 57 50t64.5 50.5t10.5 4.5t3 -4l-13 -54q0 -16 -20 -48t-33 -32q-70 0 -69 33zM479 776q0 4 57.5 50t65.5 50.5t10 4.5t2 -4l-12 -54q0 -16 -21.5 -48 t-33.5 -32q-68 0 -68 33z" />
<glyph unicode="&#xf0;" horiz-adv-x="884" d="M43 121q0 43 27 112q51 117 219 240t266 123q25 0 47 -6q57 -20 57 -66q0 -12 -4 -26q-18 -31 -26 -9q-2 4 -2 11.5t-17.5 19.5t-34.5 12q-84 0 -229 -131t-184 -264q-10 -35 -10 -71.5t36.5 -61t89 -24.5t113.5 34q229 125 340 416q55 137 72 322l-144 -45 q-18 -6 -28 -7q-25 0 -25 28t39 52l12 4l150 41v39q0 154 -54.5 218.5t-109.5 64.5q-57 0 -97 -48t-60.5 -48t-34 11t-13.5 30q0 49 45 76.5t99.5 27.5t108.5 -21.5t104 -76.5q80 -96 88 -254l69 16q57 14 86 14t29 -13t-20.5 -23.5t-32.5 -14.5q-37 -16 -43 -16l-86 -31 q-4 -162 -67.5 -339t-170.5 -300q-88 -106 -217 -162q-78 -33 -143 -32q-244 0 -244 178z" />
<glyph unicode="&#xf1;" horiz-adv-x="837" d="M-14 -47q0 6 4 17.5t40 111.5t78 220t51 144.5t12 42t7 29.5t15.5 27.5t30 16.5t47 -4t28.5 -26q0 -14 -22.5 -62t-129.5 -331q74 90 186.5 208t190.5 179q78 56 127 56q47 0 47 -50.5t-47 -138.5t-69 -143q-39 -94 -39 -150.5t16 -74.5q31 -33 84 -3.5t148.5 114.5 t152.5 167q8 10 19.5 5t11.5 -10t-4 -11q-31 -55 -111 -141.5t-153.5 -138.5t-145.5 -52q-70 2 -98.5 31.5t-28.5 74.5t8.5 87t30.5 98q37 88 64.5 137t27.5 64.5t-16 15.5q-33 0 -125 -80q-63 -59 -187 -224t-141 -175q-74 -37 -92 -37t-18 6zM299 745.5q0 2.5 19.5 31 t46 59t62.5 49t58.5 18.5t38 -6t74.5 -37q92 -47 131 -47q59 0 84 68q8 16 22.5 9t14.5 -11q0 -46 -84 -105q-35 -27 -61.5 -26.5t-44 6.5t-57.5 23.5t-56 21.5q-90 29 -115 14q-66 -16 -102 -72q-4 -6 -11.5 -6t-13.5 4t-6 6.5z" />
<glyph unicode="&#xf2;" horiz-adv-x="718" d="M70 133q0 205 211 391q80 72 170 72q25 0 45 -6q61 -20 61 -69.5t-20 -55.5q-16 -4 -17 12q2 10 2 19q0 37 -41 36q-72 0 -197.5 -146t-125.5 -300q0 -27 18.5 -62.5t68.5 -35.5t109.5 45t106.5 114l-6 13q-8 33 8 53t43 12q37 76 37 117t-9.5 64.5t8 40t44.5 12.5 q41 -10 41 -82q0 -92 -97 -225q2 -55 57.5 -55.5t168.5 118.5q53 61 66.5 79.5t23.5 13.5t10 -17t-74 -98q-117 -143 -207 -144q-59 0 -83 51q-41 -43 -80 -80q-80 -68 -199 -67q-35 0 -72 27q-72 43 -71 153zM299 944q0 18 29 27q6 2 14 2q37 0 102 -47q70 -56 209 -158 q8 -2 8.5 -12.5t-18 -10.5t-110 42t-134.5 65q-100 55 -100 92z" />
<glyph unicode="&#xf3;" horiz-adv-x="718" d="M70 133q0 121 82 246q47 74 110 129q100 88 191 88q23 0 43 -6q61 -20 61 -78q0 -47 -25 -47q-10 4 -10 31q0 37 -41 36q-72 0 -184.5 -131t-134.5 -264q-4 -23 -4 -50.5t18.5 -63t68.5 -35.5t109.5 45t106.5 114l-6 13q-8 33 8 53t43 12q37 76 37 117t-9.5 64.5t8 40 t44.5 12.5q41 -10 41 -92t-97 -215q2 -55 57.5 -55.5t168.5 118.5q53 61 66.5 79.5t23.5 13.5t10 -9q0 -20 -74 -106q-117 -143 -207 -144q-59 0 -83 51q-41 -43 -80 -80q-80 -68 -179 -67q-55 0 -92 27q-72 43 -71 153zM479.5 754.5q-0.5 7.5 4.5 11.5t28 20.5t52.5 36 t39.5 27.5t69.5 53t82.5 76q12 4 18 4l39 -12q25 -14 25 -37q0 -18 -15 -33q-33 -27 -167 -90t-160 -66q-16 2 -16.5 9.5z" />
<glyph unicode="&#xf4;" horiz-adv-x="718" d="M70 133q0 121 82 246q47 74 110 129q100 88 191 88q23 0 43 -6q61 -20 61 -78q0 -47 -25 -47q-10 4 -10 31q0 37 -41 36q-72 0 -184.5 -131t-134.5 -264q-4 -23 -4 -50.5t18.5 -63t68.5 -35.5t109.5 45t106.5 114l-6 13q-8 33 8 53t43 12q37 76 37 117t-9.5 64.5t8 40 t44.5 12.5q41 -10 41 -92t-97 -215q2 -55 57.5 -55.5t168.5 118.5q53 61 66.5 79.5t23.5 13.5t10 -9q0 -20 -74 -106q-117 -143 -207 -144q-59 0 -83 51q-41 -43 -80 -80q-80 -68 -179 -67q-55 0 -92 27q-72 43 -71 153zM307 778.5q0 18.5 15.5 30.5t70.5 61 q135 123 164 123q27 -10 79 -73.5t73.5 -96t21.5 -46t-9 -13.5t-21.5 11t-84 72.5t-84.5 74.5q-37 -23 -97 -71t-94 -69.5t-34 -3z" />
<glyph unicode="&#xf5;" horiz-adv-x="718" d="M70 133q0 121 82 246q47 74 110 129q100 88 191 88q23 0 43 -6q61 -20 61 -78q0 -47 -25 -47q-10 4 -10 31q0 37 -41 36q-72 0 -184.5 -131t-134.5 -264q-4 -23 -4 -50.5t18.5 -63t68.5 -35.5t109.5 45t106.5 114l-6 13q-8 33 8 53t43 12q37 76 37 117t-9.5 64.5t8 40 t44.5 12.5q41 -10 41 -92t-97 -215q2 -55 57.5 -55.5t168.5 118.5q53 61 66.5 79.5t23.5 13.5t10 -9q0 -20 -74 -106q-117 -143 -207 -144q-59 0 -83 51q-41 -43 -80 -80q-80 -68 -179 -67q-55 0 -92 27q-72 43 -71 153zM238 741l20 30q21 30 46.5 59.5t61 48t57 18.5t40 -6 t78.5 -35q90 -47 127 -47q59 0 84 68q4 6 20 6t16 -11q0 -47 -81 -106q-35 -25 -63 -25t-45 6.5t-57 23.5t-56.5 23.5t-56.5 14.5t-58 -2q-68 -16 -103 -72q-4 -4 -17 -4t-13 10z" />
<glyph unicode="&#xf6;" horiz-adv-x="718" d="M70 133q0 205 211 391q80 72 170 72q25 0 45 -6q61 -20 61 -69.5t-20 -55.5q-16 -4 -17 12q2 10 2 19q0 37 -41 36q-72 0 -197.5 -146t-125.5 -300q0 -27 18.5 -62.5t68.5 -35.5t109.5 45t106.5 114l-6 13q-8 33 8 53t43 12q37 76 37 117t-9.5 64.5t8 40t44.5 12.5 q41 -10 41 -82q0 -92 -97 -225q2 -55 57.5 -55.5t168.5 118.5q53 61 66.5 79.5t23.5 13.5t10 -17t-74 -98q-117 -143 -207 -144q-59 0 -83 51q-41 -43 -80 -80q-80 -68 -199 -67q-35 0 -72 27q-72 43 -71 153zM322 778q0 6 43 40t62 49.5t24 15.5q8 0 2 -25l-9 -33 q0 -16 -20.5 -48t-32.5 -32q-70 0 -69 33zM647 778q0 6 43 40t62.5 49.5t24.5 15.5t5 -4.5t-4 -20.5l-8 -33q0 -16 -21.5 -48t-31.5 -32q-70 0 -70 33z" />
<glyph unicode="&#xf7;" horiz-adv-x="960" d="M190 342q0 31 46 49q12 6 20 6l596 2q111 0 111 -25.5t-109 -31.5q-6 0 -616 -18q-47 -2 -48 18zM438 121q0 4 66 69q47 35 53 19q4 -6 4 -16v-25q0 -16 -21.5 -48t-33.5 -32q-68 0 -68 33zM586 547q0 8 32.5 36.5t40.5 34.5q27 20 38.5 20.5t11.5 -15.5v-31 q0 -16 -21.5 -48t-32.5 -32q-70 0 -69 35z" />
<glyph unicode="&#xf8;" horiz-adv-x="718" d="M68 -123q0 18 63 111q-63 45 -63 141q0 49 18 115q47 149 180 268q94 84 203 84q45 0 72 -37q92 121 107.5 134.5t29.5 13.5t28.5 -3.5t2.5 -17.5q-39 -43 -154 -180v-14q-2 -16 -12.5 -22.5t-16.5 -2.5q-213 -270 -333 -461q27 -18 64.5 -18t97 45t106.5 114l-6 13 q-8 33 8 53t43 12q37 76 37 117t-9.5 64.5t8 40t44.5 12.5q41 -10 41 -92t-97 -215q2 -55 57.5 -55.5t168.5 118.5q53 61 66.5 79.5t23.5 13.5t10 -9q0 -20 -74 -106q-117 -143 -207 -144q-59 0 -83 51q-41 -43 -89 -86q-70 -61 -165 -61q-39 0 -70 14l-43 -71 q-14 -27 -35.5 -27t-21.5 8zM158 92q0 -29 8 -51q145 217 346 479q-8 12 -31 12q-72 0 -184 -131q-139 -162 -139 -309z" />
<glyph unicode="&#xf9;" horiz-adv-x="911" d="M68 131q0 121 82.5 249t105.5 136q31 8 58.5 8t56 -11t-8.5 -38q-141 -129 -200 -287q-23 -61 -23 -103t21.5 -54.5t42.5 -12.5q49 0 134 69t234 286q20 31 71.5 120t62.5 105q33 0 76.5 -15.5t29.5 -39.5q-98 -164 -138 -242t-55 -182q-2 -18 -2 -47t17 -47 q31 -33 85 -3.5t148.5 114.5t151.5 167q8 10 19.5 5t11.5 -10t-5 -11q-30 -56 -110 -142t-143 -133q-82 -59 -179 -59q-18 0 -47.5 17.5t-40 50t-10.5 63.5q0 106 41 211q-6 -4 -56 -87t-123 -157t-147 -74q-35 0 -79 19q-82 37 -82 135zM373 940q0 18 28 29q6 2 11.5 2 h10.5t12 -2t11.5 -3t11.5 -5.5t11 -6.5t13.5 -7t13.5 -7q20 -14 56 -43t108.5 -81t74.5 -56t2 -6q0 -10 -19.5 -10.5t-110.5 41.5t-134 67q-100 53 -100 88z" />
<glyph unicode="&#xfa;" horiz-adv-x="911" d="M68 131q0 121 82.5 249t105.5 136q31 8 58.5 8t56 -11t-8.5 -38q-141 -129 -200 -287q-23 -61 -23 -103t21.5 -54.5t42.5 -12.5q49 0 134 69t234 286q20 31 71.5 120t62.5 105q33 0 76.5 -15.5t29.5 -39.5q-98 -164 -138 -242t-55 -182q-2 -18 -2 -47t17 -47 q31 -33 85 -3.5t148.5 114.5t151.5 167q8 10 19.5 5t11.5 -10t-5 -11q-30 -56 -110 -142t-143 -133q-82 -59 -179 -59q-18 0 -47.5 17.5t-40 50t-10.5 63.5q0 106 41 211q-6 -4 -56 -87t-123 -157t-147 -74q-35 0 -79 19q-82 37 -82 135zM539 755q0 7 5 13t27.5 21.5t51 35 t42 30.5t48.5 36q72 51 100 90q6 2 19.5 2t39.5 -10q25 -14 25 -37q0 -16 -22.5 -36.5t-156.5 -84t-156.5 -65.5t-22.5 5z" />
<glyph unicode="&#xfb;" horiz-adv-x="911" d="M68 131q0 121 82.5 249t105.5 136q31 8 58.5 8t56 -11t-8.5 -38q-141 -129 -200 -287q-23 -61 -23 -103t21.5 -54.5t42.5 -12.5q49 0 134 69t234 286q20 31 71.5 120t62.5 105q33 0 76.5 -15.5t29.5 -39.5q-98 -164 -138 -242t-55 -182q-2 -18 -2 -47t17 -47 q31 -33 85 -3.5t148.5 114.5t151.5 167q8 10 19.5 5t11.5 -10t-5 -11q-30 -56 -110 -142t-143 -133q-82 -59 -179 -59q-18 0 -47.5 17.5t-40 50t-10.5 63.5q0 106 41 211q-6 -4 -56 -87t-123 -157t-147 -74q-35 0 -79 19q-82 37 -82 135zM401 776q0 18 23 37q10 8 63 55 q135 123 166 123q51 -20 164 -188q8 -14 8 -27.5t-8 -13.5t-19.5 10t-85 72.5t-85.5 75.5q-35 -23 -95 -72q-131 -102 -131 -72z" />
<glyph unicode="&#xfc;" horiz-adv-x="911" d="M68 131q0 121 82.5 249t105.5 136q31 8 58.5 8t56 -11t-8.5 -38q-141 -129 -200 -287q-23 -61 -23 -103t21.5 -54.5t42.5 -12.5q49 0 134 69t234 286q20 31 71.5 120t62.5 105q33 0 76.5 -15.5t29.5 -39.5q-98 -164 -138 -242t-55 -182q-2 -18 -2 -47t17 -47 q31 -33 85 -3.5t148.5 114.5t151.5 167q8 10 19.5 5t11.5 -10t-5 -11q-30 -56 -110 -142t-143 -133q-82 -59 -179 -59q-18 0 -47.5 17.5t-40 50t-10.5 63.5q0 106 41 211q-6 -4 -56 -87t-123 -157t-147 -74q-35 0 -79 19q-82 37 -82 135zM379 776q0 4 57.5 50t64.5 50.5 t10 4.5t3 -4l-12 -54q0 -16 -20.5 -48t-32.5 -32q-70 0 -70 33zM705 776q0 4 57 50t65.5 50.5t10.5 4.5t2 -4l-13 -54q0 -16 -21.5 -48t-33.5 -32q-68 0 -67 33z" />
<glyph unicode="&#xfd;" horiz-adv-x="851" d="M-118.5 -664.5q-0.5 82.5 107 207.5t453.5 355q193 393 244 551q-25 -29 -96.5 -124.5t-126.5 -162t-133 -126t-143.5 -59.5t-101.5 30t-40 62.5t-4 55.5q0 76 41 151q61 125 166 216q39 37 68.5 36.5t54.5 -18.5q27 -29 16 -49q-78 -45 -178 -174q-53 -70 -74 -176 q-2 -14 -2 -36t17.5 -35t35.5 -13q63 0 133 67.5t133.5 142t144.5 179t107.5 138.5t58.5 31t63.5 -19.5t26.5 -27t-104.5 -232.5t-144.5 -318q49 27 167 126t200 201q20 25 26 4q2 -4 2 -13t-12 -25q-63 -84 -202.5 -211t-221.5 -172q-174 -358 -233 -451 q-153 -227 -303 -227q-16 0 -41 6q-104 27 -104.5 109.5zM-53 -654.5q0 -76.5 53 -76.5q41 0 94 42t102.5 111.5t75 119.5t70.5 147.5t61 130.5q-246 -184 -351 -291t-105 -183.5zM575 749.5q0 6.5 5.5 12.5t29 22.5t52 35t42 29.5t46.5 36q80 59 102 92q12 4 18 4l41 -12 q25 -14 25 -37q0 -18 -14 -33q-33 -27 -167 -90.5t-157 -64.5t-23 5.5z" />
<glyph unicode="&#xfe;" horiz-adv-x="718" d="M-289 -705q0 8 6 23q86 176 234.5 557t169 442.5t92.5 251.5q170 461 170 504q0 23 66.5 23t66.5 -45q0 -35 -31.5 -84t-95 -197.5t-137.5 -333t-76 -190.5q119 180 193 235q98 80 190 80q37 0 74 -12q80 -29 88 -92q2 -17 2 -33q0 -88 -74 -182q-137 -178 -383 -262 q-74 -25 -122 -25t-78 10q-45 -104 -125 -350q-8 -27 -9.5 -67t-25 -108.5t-45.5 -109.5q-10 -25 -59.5 -40t-70 -15t-20.5 20zM84 -2q125 0 274.5 108.5t223.5 235.5q41 64 41 113q0 72 -56 71q-33 0 -106.5 -38.5t-147 -116.5t-113.5 -146.5t-75 -141.5t-41 -85z" />
<glyph unicode="&#xff;" horiz-adv-x="3072" />
<glyph unicode="&#x152;" horiz-adv-x="3072" />
<glyph unicode="&#x153;" horiz-adv-x="1073" d="M70 133q0 121 82 246q47 74 110 129q100 88 191 88q74 0 112 -59q18 -33 18.5 -55.5t-1.5 -50.5t-21 -42q-31 -10 -29 10l9 66q0 43 -17.5 55t-42.5 12q-72 0 -184.5 -131t-134.5 -264q-4 -23 -4 -50.5t18.5 -63t71.5 -35.5q78 0 172 108q18 16 43 58q12 49 26 79 q51 117 219.5 240t266.5 123q111 0 110 -107q0 -55 -30 -90q-51 -76 -166 -132t-195 -62q-29 -2 -30 16q-2 8 5 10t11 2q47 4 121 46q137 74 198 151q29 37 29 71t-33 34q-27 0 -71 -23q-96 -45 -203 -156.5t-139 -218.5q-10 -33 -10.5 -64.5t26.5 -60t82 -28.5q61 0 141 32 q231 94 357 285q12 16 22 6q8 -4 8 -10t-6 -14q-51 -90 -143 -175t-211 -133q-78 -33 -137 -32q-211 0 -246 133q-98 -123 -232 -123q-55 0 -92 27q-72 43 -71 153z" />
<glyph unicode="&#x178;" horiz-adv-x="1077" d="M14 -633q0 123 129 271q254 291 680 428q14 33 67.5 231.5t80.5 286.5q-182 -276 -379 -463t-359 -187q-145 0 -145 189q0 172 170 520q92 190 109.5 230t1.5 38q-16 -4 -47 -26q-160 -135 -279 -144q-20 -2 -20 11q4 18 26 22q80 8 238.5 136t191.5 190q8 25 78 24 q53 -4 51 -24q-352 -592 -399 -848q-10 -57 -10 -102q0 -143 102 -144q84 0 192.5 87t215.5 222q252 328 389 654q37 86 57 102q35 57 131 70q49 6 91 -2.5t44 -8.5q23 -4 23 -18q0 -2 -2 -6q-6 -16 -22.5 -15t-24.5 1q-66 0 -115 -53.5t-86 -154t-139.5 -428t-114.5 -360.5 q106 27 142 27t46 -6q14 -12 6 -22.5t-16 -6.5t-31.5 4t-93 -17.5t-82.5 -49.5q-205 -518 -495 -721q-129 -90 -234 -90q-39 0 -71 12q-96 35 -97 141zM125 -606q0 -25 6 -45q20 -80 102 -80q121 0 252 162q199 240 326 596q-354 -117 -567 -379q-119 -145 -119 -254z M678 1329q0 4 62.5 53.5t68.5 49.5t-1 -23t-7 -36t-20.5 -45t-32.5 -32q-70 0 -70 33zM1004 1329q0 4 57 50t65.5 50.5t10.5 4.5t2 -4l-13 -54q0 -16 -21.5 -48t-31.5 -32q-70 0 -69 33z" />
<glyph unicode="&#x2c6;" d="M412 688q0 18 15 30.5t69 61.5q135 121 168 125q24 -10 77.5 -74.5t74 -97.5t20.5 -46t-8.5 -13t-20.5 11t-85 72.5t-85 76.5q-35 -23 -96 -72q-129 -104 -129 -74z" />
<glyph unicode="&#x2dc;" horiz-adv-x="837" d="M274 699q0 3 21.5 33t45.5 58.5t59.5 47t62.5 18.5l37 -6q16 -6 75 -35q92 -47 130 -47q59 0 83 68q8 12 21.5 6t13.5 -11q0 -47 -82 -106q-35 -25 -61.5 -25t-45 6.5t-57 24t-57.5 23.5q-82 29 -112 12q-68 -16 -103 -72q-4 -6 -11 -6t-13.5 4t-6.5 7z" />
<glyph unicode="&#x2000;" horiz-adv-x="806" />
<glyph unicode="&#x2001;" horiz-adv-x="1612" />
<glyph unicode="&#x2002;" horiz-adv-x="806" />
<glyph unicode="&#x2003;" horiz-adv-x="1612" />
<glyph unicode="&#x2004;" horiz-adv-x="537" />
<glyph unicode="&#x2005;" horiz-adv-x="403" />
<glyph unicode="&#x2006;" horiz-adv-x="268" />
<glyph unicode="&#x2007;" horiz-adv-x="268" />
<glyph unicode="&#x2008;" horiz-adv-x="201" />
<glyph unicode="&#x2009;" horiz-adv-x="322" />
<glyph unicode="&#x200a;" horiz-adv-x="89" />
<glyph unicode="&#x2010;" horiz-adv-x="772" d="M293 342q0 29 45 49q12 6 22 6l304 2q113 0 112 -24q0 -41 -436 -51h-10q-37 0 -37 18z" />
<glyph unicode="&#x2011;" horiz-adv-x="772" d="M293 342q0 29 45 49q12 6 22 6l304 2q113 0 112 -24q0 -41 -436 -51h-10q-37 0 -37 18z" />
<glyph unicode="&#x2012;" horiz-adv-x="772" d="M293 342q0 29 45 49q12 6 22 6l304 2q113 0 112 -24q0 -41 -436 -51h-10q-37 0 -37 18z" />
<glyph unicode="&#x2013;" horiz-adv-x="770" d="M293 342q0 29 45 49q12 6 22 6l594 2q109 0 113 -24q0 -21 -111 -33l-626 -18q-37 0 -37 18z" />
<glyph unicode="&#x2014;" horiz-adv-x="1484" d="M293 342q0 29 45 49q12 6 22 6l1006 2q109 0 113 -24q0 -27 -109 -33q-70 -6 -541 -12t-483 -6h-16q-37 0 -37 18z" />
<glyph unicode="&#x2018;" horiz-adv-x="294" d="M49 938q0 29 88 141q123 143 146 144q8 -1 8 -19q0 -6 -59.5 -73.5t-79.5 -139.5q-10 -20 -10.5 -35.5t9 -35t7.5 -35.5q-14 -20 -46 -20.5t-47.5 22t-15.5 51.5z" />
<glyph unicode="&#x2019;" horiz-adv-x="481" d="M225 870.5q0 12.5 59.5 79t82.5 140.5q14 33 0.5 59.5t-11.5 46.5q14 20 46 20.5t47.5 -22.5t15.5 -43q0 -41 -86 -150q-125 -143 -146 -143q-8 0 -8 12.5z" />
<glyph unicode="&#x201a;" horiz-adv-x="393" d="M186 -164l9 209q0 14 -2.5 44t0 41t16.5 21.5t52 10.5t38 -37q0 -27 -9 -58.5t-14 -46.5q-39 -123 -51 -180q-8 -25 -23.5 -24.5t-15.5 20.5z" />
<glyph unicode="&#x201c;" horiz-adv-x="339" d="M49 938q0 29 88 141q123 143 146 144q8 -1 8 -19q0 -6 -59.5 -73.5t-79.5 -139.5q-10 -20 -10.5 -35.5t9 -35t7.5 -35.5q-14 -20 -46 -20.5t-47.5 22t-15.5 51.5zM264 930q0 43 94 155q115 137 138 138q8 -1 8 -19q0 -4 -45 -57q-72 -78 -92 -156q-10 -20 -10.5 -35.5 t9 -35t7.5 -35.5q-14 -20 -46 -20.5t-47.5 22t-15.5 43.5z" />
<glyph unicode="&#x201d;" horiz-adv-x="622" d="M225 870.5q0 12.5 59.5 79t82.5 140.5q14 33 0.5 59.5t-11.5 46.5q14 20 46 20.5t47.5 -22.5t15.5 -43q0 -41 -86 -150q-125 -143 -146 -143q-8 0 -8 12.5zM438 871.5q0 13.5 47 60.5q74 88 93 158q16 33 3.5 60.5t-10.5 45.5q14 20 46 20.5t47.5 -22.5t15.5 -51.5 t-88 -141.5q-123 -143 -146 -143q-8 0 -8 13.5z" />
<glyph unicode="&#x201e;" horiz-adv-x="636" d="M186 -164l9 209q0 14 -2.5 44t0 41t16.5 21.5t52 10.5t38 -37q0 -27 -9 -58.5t-14 -46.5q-39 -123 -51 -180q-8 -25 -23.5 -24.5t-15.5 20.5zM414 -154q10 63 10 139t-1 105t0 40t16.5 21.5t52 10.5t36.5 -35q0 -31 -14 -78q-49 -160 -58.5 -196.5t-23.5 -36.5 q-23 0 -18 30z" />
<glyph unicode="&#x2022;" horiz-adv-x="854" d="M141 420.5q0 105.5 109.5 205t290.5 99.5q125 0 191.5 -50t66.5 -156.5t-112 -210t-263.5 -103.5t-217 55t-65.5 160.5z" />
<glyph unicode="&#x2026;" horiz-adv-x="923" d="M133 8q0 16 41 49q58 45 72 45q10 0 10 -14v-33q0 -14 -20.5 -47t-32.5 -33q-70 0 -70 33zM455 8q0 16 41 49q59 45 72.5 45t13.5 -12v-35q0 -14 -22.5 -47t-35.5 -33q-70 0 -69 33zM770 8q0 16 41 49q60 45 72 45q10 0 10 -14v-33q0 -14 -21.5 -47t-31.5 -33 q-70 0 -70 33z" />
<glyph unicode="&#x202f;" horiz-adv-x="322" />
<glyph unicode="&#x2039;" horiz-adv-x="604" d="M172 401q0 13 3 16t37 33.5t87 83t93 89t73 64.5t39 28t6 -15.5t-27 -46.5q-88 -106 -209 -219q106 -213 120 -245.5t-7 -43.5q-2 -2 -6 -2q-10 0 -25 25q-61 96 -161 197q-23 23 -23 36z" />
<glyph unicode="&#x203a;" horiz-adv-x="583" d="M174 176q0 14 17.5 34.5t39 46.5t35.5 42q45 51 144 145q-100 188 -117 232.5t2 52.5q4 2 6 2q12 0 27 -24q55 -90 161 -197q23 -31 23 -38t-33 -42q-45 -41 -95 -89t-92 -87t-74 -65.5t-38 -26.5t-6 14z" />
<glyph unicode="&#x205f;" horiz-adv-x="403" />
<glyph unicode="&#x20ac;" horiz-adv-x="1103" d="M-8 343.5q0 27.5 43 47.5q14 6 24 6h11q18 88 67 183q16 25 21 38q-113 -16 -111 19q2 27 41 47l25 6h92q129 190 310 315t359 125q88 0 155 -34.5t67 -124.5q0 -20 -19.5 -30.5t-39 -2.5t-19.5 29q0 57 -47 88q-53 35 -113 35q-127 0 -273.5 -114t-258.5 -286 q150 2 281.5 2t147 -4t16.5 -8t1 -14q0 -25 -61 -33q-125 -8 -430 -12l-33 -62q-43 -86 -62 -162h467q53 0 58.5 -7t5.5 -19q0 -23 -46 -27t-129 -7t-198 -6t-176 -5q-6 -41 -6 -76q0 -115 59 -189q76 -100 223.5 -100t343.5 100q201 106 320 265q35 45 35 -2q0 -14 -8 -27 q-125 -162 -316.5 -267.5t-383 -105.5t-302.5 125q-80 90 -80 223q0 25 2 52q-63 -8 -63 19.5z" />
<glyph unicode="&#x2122;" horiz-adv-x="1755" d="M178 1014q0 35 55 49q133 27 332 27q336 0 361 -29q6 -4 6 -9t-2 -8q0 -16 -45 -16q-238 0 -355 -10q0 -14 -8 -25q-122 -205 -241 -649q-10 -14 -50.5 -14t-44.5 22q2 43 128 329t161 329l6 2q-72 -4 -196 -25l-27 -8q-12 0 -29 -6q-51 0 -51 41zM745 348 q-2 39 53.5 190.5t123.5 305.5q0 102 7 166.5t58 85.5q18 8 39 3t16 -24l-6 -31q25 -2 48.5 -20t15.5 -33l-76 -137v-61t4 -107q25 -209 88 -209q55 0 168 117q92 90 250 297q33 106 80 158q49 53 75.5 53t26.5 -21q0 -14 -27.5 -74.5t-109.5 -166.5q-27 -57 -76 -260 l-16 -54q-12 -80 -15.5 -102.5t8 -40.5t44 -1t50 17t28.5 -6q20 -10 -15 -35q-55 -41 -106 -41q-72 0 -97 58q-8 18 -8 47q0 84 68 262q-231 -276 -346 -276q-45 0 -86 36q-59 57 -82 222v4q-84 -180 -109 -326q-12 -10 -40.5 -11t-35.5 15z" />
<glyph unicode="&#x25fc;" horiz-adv-x="593" d="M0 0v594h594v-594h-594z" />
<glyph unicode="&#xfb01;" horiz-adv-x="940" d="M-164 -709q0 6 4 17q143 281 318 764l65 182q-61 -10 -95 -10t-51.5 13t-17.5 34.5t46.5 39t71 17.5t40.5 -16.5t23 -16.5h6q82 231 188 469q195 416 402 416q96 0 143 -74q27 -43 27 -91t-31 -124.5t-73 -113.5t-68.5 -37t-43 10t-16.5 22.5t9.5 27t19.5 28.5 q39 43 50 60.5t20.5 30.5t28 46t25.5 55.5t11 46.5q8 53 -55 58h-4q-43 0 -105 -45q-102 -76 -254 -373q-86 -162 -174 -369q-6 -8 -16 -34q154 23 207 22.5t55 -12.5q0 -8 -44 -21.5t-241 -46.5q-90 -231 -213 -567q-35 -100 -37 -145.5t-9 -64.5t-17.5 -45t-15.5 -39 t-11 -29.5t-10 -23.5t-9 -16.5t-10.5 -13.5t-42 -24.5t-66.5 -20.5t-30 14zM547 42.5q0 31.5 5 67t12 58t21.5 63.5t44 117t38.5 98q41 115 71 121h15q51 0 61 -32q4 -18 -5 -36t-13 -28t-6 -16q-10 -20 -21 -39q-115 -229 -123 -297q-2 -18 -2 -47t17 -47q31 -33 84 -4.5 t148 114.5t153 168q8 10 19 5t11 -10t-4 -11q-31 -55 -110.5 -141.5t-155.5 -139.5q-65 -51 -145 -51q-6 0 -32 1t-50 24q-33 31 -33 62.5z" />
<glyph unicode="&#xfb02;" horiz-adv-x="1069" d="M-164 -709q0 6 4 17q143 281 318 764l61 172h-104q-20 0 -38 13t-18 34.5t46.5 39t71 17.5t40.5 -16.5t23 -16.5h6q82 231 188 469q195 416 402 416q37 0 73 -14q98 -37 99 -115q0 -47 -27 -89t-63 -54q-63 -25 -9 65q29 49 29 82t-18.5 52.5t-50 19.5t-92 -44 t-128 -149.5t-141.5 -247t-162 -348.5q-14 -23 -20 -45q238 0 381 39q61 164 159.5 351.5t163 272.5t96 121t95 75.5t134 39.5t99.5 -53q10 -18 10 -53t-30 -98q-129 -225 -318 -426q-129 -135 -313 -228q-31 -61 -62 -186q-2 -20 -2 -61t21 -72q37 -57 119 -10 q59 33 153 119.5t146 158.5q4 6 12 6q18 0 10 -26q-31 -55 -112.5 -141.5t-149.5 -136.5t-137 -50q-156 0 -156 156q0 63 45 196q-156 -51 -391 -63q-47 -119 -205 -545q-35 -100 -37 -145.5t-9 -64.5t-17.5 -45t-15.5 -39t-11 -29.5t-10 -23.5t-9 -16.5t-10.5 -13.5 t-42 -24.5t-66.5 -20.5t-30 14zM819 393l15 6q125 74 251 222q191 224 295 423q25 45 25 68q0 45 -37 45q-27 0 -70 -33q-168 -127 -317 -401q-90 -150 -162 -330z" />
<glyph unicode="&#xfb03;" horiz-adv-x="1636" d="M-164 -709q0 6 4 17q37 70 379 944q-63 -8 -94 -8t-48.5 13t-17.5 34.5t46.5 39t71 17.5t40.5 -16.5t23 -16.5h6l59 152q37 102 113 267t137 263q137 207 274 207l50 -6l41 -14q59 -35 59 -95.5t-33 -130.5q-55 -119 -225 -309t-328 -317q168 14 216 14t50 -12 q0 -8 -38.5 -19.5t-315.5 -52.5q-244 -618 -248 -708q-2 -45 -9 -64.5t-17.5 -45.5t-15.5 -39t-11 -29.5t-10 -23.5t-9 -16.5t-10.5 -13.5t-42 -24.5t-66.5 -20.5t-30 14zM330 326q143 106 305 302.5t254 358.5q35 59 35 112.5t-39 53.5q-78 0 -221 -201q-84 -119 -150 -235 q-131 -246 -168 -359zM433.5 -681q17.5 36 373.5 933q-66 -8 -96.5 -8t-48 13t-17.5 34.5t46 39t70.5 17.5t41 -16.5t24.5 -16.5h4l60 152q35 98 111.5 264t138.5 266q137 207 274 207l49 -6l41 -14q61 -35 61.5 -95.5t-44.5 -154.5t-215 -285.5t-326 -316.5q168 14 215 14 t49 -12q0 -8 -37 -19.5t-317 -52.5q-244 -618 -248 -708q-2 -45 -11 -68t-21.5 -58.5t-17.5 -49t-11 -29.5q-8 -18 -31 -35q-68 -37 -89.5 -37t-27.5 2q-18 4 -0.5 40zM915 326q143 106 305.5 302.5t254.5 358.5q35 59 34.5 112.5t-39.5 53.5q-78 0 -221 -201 q-84 -119 -149 -235q-61 -117 -168 -359zM1196 192.5q0 6.5 6 16.5q111 137 160 211q-4 10 2 26q41 115 72 121h14q51 0 61 -32q4 -18 -5 -36t-13 -28t-6 -16q-10 -20 -21 -39q-115 -229 -123 -297q-2 -18 -2 -47t17 -47q31 -33 84 -4.5t148.5 114.5t152.5 168q8 10 19.5 5 t11.5 -10t-5 -11q-31 -55 -110 -142q-131 -141 -219 -174q-96 -33 -140 -8q-61 35 -61 104.5t66 215.5q-57 -80 -77 -101.5t-30 -1.5q-2 6 -2 12.5zM1442 717q0 14 123 102q33 29 41 29t8 -8l-17 -66q0 -18 -27.5 -59t-41.5 -41q-86 0 -86 43z" />
<glyph unicode="&#xfb04;" horiz-adv-x="1652" d="M-164 -709q0 6 4 17q37 70 379 944q-63 -8 -94 -8t-48.5 13t-17.5 34.5t46.5 39t71 17.5t40.5 -16.5t23 -16.5h6l59 152q37 102 113 267t137 263q137 207 274 207l50 -6l41 -14q59 -35 59 -95.5t-33 -130.5q-55 -119 -225 -309t-328 -317q168 14 216 14t50 -12 q0 -8 -38.5 -19.5t-315.5 -52.5q-244 -618 -248 -708q-2 -45 -9 -64.5t-17.5 -45.5t-15.5 -39t-11 -29.5t-10 -23.5t-9 -16.5t-10.5 -13.5t-42 -24.5t-66.5 -20.5t-30 14zM330 326q143 106 305 302.5t254 358.5q35 59 35 112.5t-39 53.5q-78 0 -221 -201q-84 -119 -150 -235 q-131 -246 -168 -359zM433.5 -681q17.5 36 373.5 933q-66 -8 -96.5 -8t-48 13t-17.5 34.5t46 39t70.5 17.5t41 -16.5t24.5 -16.5h4l60 152q35 98 111.5 264t138.5 266q137 207 274 207l49 -6l41 -14q61 -35 61.5 -95.5t-44.5 -154.5t-215 -285.5t-326 -316.5q168 14 215 14 t49 -12q0 -8 -37 -19.5t-317 -52.5q-244 -618 -248 -708q-2 -45 -11 -68t-21.5 -58.5t-17.5 -49t-11 -29.5q-8 -18 -31 -35q-68 -37 -89.5 -37t-27.5 2q-18 4 -0.5 40zM915 326q143 106 305.5 302.5t254.5 358.5q35 59 34.5 112.5t-39.5 53.5q-78 0 -221 -201 q-84 -119 -149 -235q-61 -117 -168 -359zM1231 119q8 143 145 433t250 437q53 70 85 107t95.5 76.5t134 39.5t99.5 -53q10 -18 10 -53t-31 -98q-204 -363 -665 -746q-23 -76 -26 -97.5t-3 -60t20.5 -70.5t50 -32t80 27.5t143.5 113.5t144 160q4 6 15 6q20 0 8 -26 q-31 -55 -113 -141.5t-149.5 -136.5t-137.5 -50q-160 0 -155 164zM1384 344q143 96 316.5 312t265.5 388q25 45 25 70q0 43 -35 43q-29 0 -72 -33q-170 -131 -317 -401q-100 -180 -183 -379z" />
</font>
</defs>
</svg>
